与恐龙同行3D上下.1080p.3D.Half-OU.x264-HD.MA.5.1-FGT 15GB

2017-06-21 12:05 / 星云电影网 / 动画

电影简介:◎译 名 与恐龙同行/与龙同行3D大电影(港) ◎片 名 Walking with Dinosaurs 3D ◎年 代 2013 ◎产 地 英国/美国/澳大利亚 ◎类 别 动作/动画/纪录片 ◎语 言 英语 ◎上映日期 2013-12-20(英国)/2013-12-20(美国)/2014-01-01(澳大利亚) ◎IMDb评分 5.2/10 fro

Walking.with.Dinosaurs.2013.1080p.3D.BluRay.Half-OU.x264.DTS-HD.MA.5.1-FGT

◎译  名 与恐龙同行/与龙同行3D大电影(港)

◎片  名 Walking with Dinosaurs 3D

◎年  代 2013

◎产  地 英国/美国/澳大利亚

◎类  别/动画/纪录片

◎语  言 英语

◎上映日期 2013-12-20(英国)/2013-12-20(美国)/2014-01-01(澳大利亚)

◎IMDb评分  5.2/10 from 9,384 users

◎IMDb链接  http://www.imdb.com/title/tt1762399/

◎豆瓣评分 6.4/10 from 1,275 users

◎豆瓣链接 https://movie.douban.com/subject/6875763/

◎BT之家整理 http://www.btbtt.co 

◎片  长 87分钟

◎导  演 Barry Cook / Neil Nightingale

◎主  演 查理·罗 Charlie Rowe

      安格瑞·赖斯 Angourie Rice


◎简  


  炎热的假期,男孩里奇(查理·罗 Charlie Rowe 饰)和妹妹跟随身为考古学家的叔叔(Karl Urban 饰)来到了辽阔壮丽的阿拉斯加,体验一次难得的寻访史前动物的旅程。在森林中,他受到一只乌鸦的指引,竟然穿越时空来到了七千万年前的白垩纪中期。在某个厚鼻龙家族中,小家伙派西(Justin Long 配音)刚刚出生就被伤齿龙在脑袋上开了一个大洞,幸运活下来的他注定拥有传奇的一生。时光荏苒,派西和伙伴们一天天长大,他也偶然邂逅令之心动的女孩裘妮波(Tiya Sircar 配音)。厚鼻龙家族的大迁徙开始,但从旅途之处便伴随着大火和猎杀。

  七千万年前,一段充满惊险的挑战的旅程再度呈现……


◎获奖情况


  第50届美国声音效果协会奖  (2014)

  动画电影佳音效(提名) Andy Koyama



Video

ID                                       : 1

Format                                   : AVC

Format/Info                              : Advanced Video Codec

Format profile                           : [email protected]

Format settings, CABAC                   : Yes

Format settings, ReFrames                : 2 frames

Format settings, GOP                     : M=3, N=24

Codec ID                                 : V_MPEG4/ISO/AVC

Duration                                 : 1 h 27 min

Nominal bit rate                         : 16.0 Mb/s

Width                                    : 1 920 pixels

Height                                   : 1 080 pixels

Display aspect ratio                     : 16:9

Frame rate mode                          : Constant

Frame rate                               : 23.976 (24000/1001) FPS

Color space                              : YUV

Chroma subsampling                       : 4:2:0

Bit depth                                : 8 bits

Scan type                                : Progressive

Bits/(Pixel*Frame)                       : 0.322

Title                                    : Walking.with.Dinosaurs.2013.1080p.3D.BluRay.Half-OU.x264.DTS-HD.MA.5.1-FGT

Writing library                          : x264 core 142

Encoding settings                        : cabac=1 / ref=1 / deblock=1:-1:-1 / analyse=0x3:0 / me=hex / subme=5 / psy=0 / mixed_ref=0 / me_range=16 / chroma_me=1 / trellis=0 / 8x8dct=1 / cqm=0 / deadzone=21,11 / fast_pskip=0 / chroma_qp_offset=0 / threads=8 / lookahead_threads=2 / sliced_threads=0 / nr=0 / decimate=1 / interlaced=0 / bluray_compat=0 / constrained_intra=0 / bframes=2 / b_pyramid=0 / b_adapt=1 / b_bias=0 / direct=1 / weightb=0 / open_gop=0 / weightp=0 / keyint=24 / keyint_min=13 / scenecut=40 / intra_refresh=0 / rc=2pass / mbtree=0 / bitrate=16000 / ratetol=1.0 / qcomp=0.60 / qpmin=0 / qpmax=69 / qpstep=4 / cplxblur=20.0 / qblur=0.5 / ip_ratio=1.40 / pb_ratio=1.30 / aq=1:1.00

Default                                  : Yes

Forced                                   : No

Color range                              : Limited

Color primaries                          : BT.709

Transfer characteristics                 : BT.709

Matrix coefficients                      : BT.709


Audio #1

ID                                       : 2

Format                                   : DTS

Format/Info                              : Digital Theater Systems

Format profile                           : MA / Core

Mode                                     : 16

Format settings, Endianness              : Big

Codec ID                                 : A_DTS

Duration                                 : 1 h 27 min

Bit rate mode                            : Variable / Constant

Bit rate                                 : Unknown / 1 509 kb/s

Channel(s)                               : 6 channels

Channel positions                        : Front: L C R, Side: L R, LFE

Sampling rate                            : 48.0 kHz

Frame rate                               : 93.750 FPS (512 spf)

Bit depth                                : 24 bits

Compression mode                         : Lossless / Lossy

Title                                    : Walking.with.Dinosaurs.2013.1080p.3D.BluRay.Half-OU.x264.DTS-HD.MA.5.1-FGT

Language                                 : English

Default                                  : Yes

Forced                                   : No


Audio #2

ID                                       : 3

Format                                   : DTS

Format/Info                              : Digital Theater Systems

Mode                                     : 16

Format settings, Endianness              : Big

Codec ID                                 : A_DTS

Duration                                 : 1 h 27 min

Bit rate mode                            : Constant

Bit rate                                 : 1 509 kb/s

Channel(s)                               : 6 channels

Channel positions                        : Front: L C R, Side: L R, LFE

Sampling rate                            : 48.0 kHz

Frame rate                               : 93.750 FPS (512 spf)

Bit depth                                : 24 bits

Compression mode                         : Lossy

Stream size                              : 945 MiB (6%)

Title                                    : Walking.with.Dinosaurs.2013.1080p.3D.BluRay.Half-OU.x264.DTS-HD.MA.5.1-FGT

Language                                 : English

Default                                  : No

Forced                                   : No


Audio #3

ID                                       : 4

Format                                   : AC-3

Format/Info                              : Audio Coding 3

Format settings, Endianness              : Big

Codec ID                                 : A_AC3

Duration                                 : 1 h 27 min

Bit rate mode                            : Constant

Bit rate                                 : 448 kb/s

Channel(s)                               : 6 channels

Channel positions                        : Front: L C R, Side: L R, LFE

Sampling rate                            : 48.0 kHz

Frame rate                               : 31.250 FPS (1536 spf)

Bit depth                                : 16 bits

Compression mode                         : Lossy

Stream size                              : 280 MiB (2%)

Title                                    : Walking.with.Dinosaurs.2013.1080p.3D.BluRay.Half-OU.x264.DTS-HD.MA.5.1-FGT

Language                                 : English

Service kind                             : Complete Main

Default                                  : No

Forced                                   : No


Audio #4

ID                                       : 5

Format                                   : AC-3

Format/Info                              : Audio Coding 3

Format settings, Endianness              : Big

Codec ID                                 : A_AC3

Duration                                 : 1 h 27 min

Bit rate mode                            : Constant

Bit rate                                 : 448 kb/s

Channel(s)                               : 6 channels

Channel positions                        : Front: L C R, Side: L R, LFE

Sampling rate                            : 48.0 kHz

Frame rate                               : 31.250 FPS (1536 spf)

Bit depth                                : 16 bits

Compression mode                         : Lossy

Stream size                              : 280 MiB (2%)

Title                                    : Walking.with.Dinosaurs.2013.1080p.3D.BluRay.Half-OU.x264.DTS-HD.MA.5.1-FGT

Language                                 : Spanish

Service kind                             : Complete Main

Default                                  : No

Forced                                   : No


Audio #5

ID                                       : 6

Format                                   : AC-3

Format/Info                              : Audio Coding 3

Format settings, Endianness              : Big

Codec ID                                 : A_AC3

Duration                                 : 1 h 27 min

Bit rate mode                            : Constant

Bit rate                                 : 448 kb/s

Channel(s)                               : 6 channels

Channel positions                        : Front: L C R, Side: L R, LFE

Sampling rate                            : 48.0 kHz

Frame rate                               : 31.250 FPS (1536 spf)

Bit depth                                : 16 bits

Compression mode                         : Lossy

Stream size                              : 280 MiB (2%)

Title                                    : Walking.with.Dinosaurs.2013.1080p.3D.BluRay.Half-OU.x264.DTS-HD.MA.5.1-FGT

Language                                 : Portuguese

Service kind                             : Complete Main

Default                                  : No

Forced                                   : No


Audio #6

ID                                       : 7

Format                                   : DTS

Format/Info                              : Digital Theater Systems

Mode                                     : 16

Format settings, Endianness              : Big

Codec ID                                 : A_DTS

Duration                                 : 1 h 27 min

Bit rate mode                            : Constant

Bit rate                                 : 768 kb/s

Channel(s)                               : 6 channels

Channel positions                        : Front: L C R, Side: L R, LFE

Sampling rate                            : 48.0 kHz

Frame rate                               : 93.750 FPS (512 spf)

Bit depth                                : 24 bits

Compression mode                         : Lossy

Stream size                              : 481 MiB (3%)

Title                                    : Walking.with.Dinosaurs.2013.1080p.3D.BluRay.Half-OU.x264.DTS-HD.MA.5.1-FGT

Language                                 : Russian

Default                                  : No

Forced                                   : No


Audio #7

ID                                       : 8

Format                                   : AC-3

Format/Info                              : Audio Coding 3

Format settings, Endianness              : Big

Codec ID                                 : A_AC3

Duration                                 : 1 h 27 min

Bit rate mode                            : Constant

Bit rate                                 : 448 kb/s

Channel(s)                               : 6 channels

Channel positions                        : Front: L C R, Side: L R, LFE

Sampling rate                            : 48.0 kHz

Frame rate                               : 31.250 FPS (1536 spf)

Bit depth                                : 16 bits

Compression mode                         : Lossy

Stream size                              : 280 MiB (2%)

Title                                    : Walking.with.Dinosaurs.2013.1080p.3D.BluRay.Half-OU.x264.DTS-HD.MA.5.1-FGT

Language                                 : Estonian

Service kind                             : Complete Main

Default                                  : No

Forced                                   : No


Audio #8

ID                                       : 9

Format                                   : AC-3

Format/Info                              : Audio Coding 3

Format settings, Endianness              : Big

Codec ID                                 : A_AC3

Duration                                 : 1 h 27 min

Bit rate mode                            : Constant

Bit rate                                 : 448 kb/s

Channel(s)                               : 6 channels

Channel positions                        : Front: L C R, Side: L R, LFE

Sampling rate                            : 48.0 kHz

Frame rate                               : 31.250 FPS (1536 spf)

Bit depth                                : 16 bits

Compression mode                         : Lossy

Stream size                              : 280 MiB (2%)

Title                                    : Walking.with.Dinosaurs.2013.1080p.3D.BluRay.Half-OU.x264.DTS-HD.MA.5.1-FGT

Language                                 : Latvian

Service kind                             : Complete Main

Default                                  : No

Forced                                   : No


Audio #9

ID                                       : 10

Format                                   : AC-3

Format/Info                              : Audio Coding 3

Format settings, Endianness              : Big

Codec ID                                 : A_AC3

Duration                                 : 1 h 27 min

Bit rate mode                            : Constant

Bit rate                                 : 448 kb/s

Channel(s)                               : 6 channels

Channel positions                        : Front: L C R, Side: L R, LFE

Sampling rate                            : 48.0 kHz

Frame rate                               : 31.250 FPS (1536 spf)

Bit depth                                : 16 bits

Compression mode                         : Lossy

Stream size                              : 280 MiB (2%)

Title                                    : Walking.with.Dinosaurs.2013.1080p.3D.BluRay.Half-OU.x264.DTS-HD.MA.5.1-FGT

Language                                 : Lithuanian

Service kind                             : Complete Main

Default                                  : No

Forced                                   : No


Audio #10

ID                                       : 11

Format                                   : AC-3

Format/Info                              : Audio Coding 3

Format settings, Endianness              : Big

Codec ID                                 : A_AC3

Duration                                 : 1 h 27 min

Bit rate mode                            : Constant

Bit rate                                 : 448 kb/s

Channel(s)                               : 6 channels

Channel positions                        : Front: L C R, Side: L R, LFE

Sampling rate                            : 48.0 kHz

Frame rate                               : 31.250 FPS (1536 spf)

Bit depth                                : 16 bits

Compression mode                         : Lossy

Stream size                              : 280 MiB (2%)

Title                                    : Walking.with.Dinosaurs.2013.1080p.3D.BluRay.Half-OU.x264.DTS-HD.MA.5.1-FGT

Language                                 : Ukrainian

Service kind                             : Complete Main

Default                                  : No

Forced                                   : No


Text #1

ID                                       : 12

Format                                   : PGS

Muxing mode                              : zlib

Codec ID                                 : S_HDMV/PGS

Codec ID/Info                            : Picture based subtitle format used on BDs/HD-DVDs

Title                                    : English-PGS

Language                                 : English

Default                                  : Yes

Forced                                   : No


Text #2

ID                                       : 13

Format                                   : PGS

Muxing mode                              : zlib

Codec ID                                 : S_HDMV/PGS

Codec ID/Info                            : Picture based subtitle format used on BDs/HD-DVDs

Title                                    : Spanish-PGS

Language                                 : Spanish

Default                                  : No

Forced                                   : No


Text #3

ID                                       : 14

Format                                   : PGS

Muxing mode                              : zlib

Codec ID                                 : S_HDMV/PGS

Codec ID/Info                            : Picture based subtitle format used on BDs/HD-DVDs

Title                                    : Portuguese-PGS

Language                                 : Portuguese

Default                                  : No

Forced                                   : No


Text #4

ID                                       : 15

Format                                   : PGS

Muxing mode                              : zlib

Codec ID                                 : S_HDMV/PGS

Codec ID/Info                            : Picture based subtitle format used on BDs/HD-DVDs

Title                                    : Russian-PGS

Language                                 : Russian

Default                                  : No

Forced                                   : No


Text #5

ID                                       : 16

Format                                   : PGS

Muxing mode                              : zlib

Codec ID                                 : S_HDMV/PGS

Codec ID/Info                            : Picture based subtitle format used on BDs/HD-DVDs

Title                                    : Estonian-PGS

Language                                 : Estonian

Default                                  : No

Forced                                   : No


Text #6

ID                                       : 17

Format                                   : PGS

Muxing mode                              : zlib

Codec ID                                 : S_HDMV/PGS

Codec ID/Info                            : Picture based subtitle format used on BDs/HD-DVDs

Title                                    : Latvian-PGS

Language                                 : Latvian

Default                                  : No

Forced                                   : No


Text #7

ID                                       : 18

Format                                   : PGS

Muxing mode                              : zlib

Codec ID                                 : S_HDMV/PGS

Codec ID/Info                            : Picture based subtitle format used on BDs/HD-DVDs

Title                                    : Lithuanian-PGS

Language                                 : Lithuanian

Default                                  : No

Forced                                   : No


Text #8

ID                                       : 19

Format                                   : PGS

Muxing mode                              : zlib

Codec ID                                 : S_HDMV/PGS

Codec ID/Info                            : Picture based subtitle format used on BDs/HD-DVDs

Title                                    : Ukrainian-PGS

Language                                 : Ukrainian

Default                                  : No

Forced                                   : No


Menu

00:00:00.000                             : en01)00:00:00:000

00:01:52.529                             : en02)00:01:52:529

00:05:28.953                             : en03)00:05:28:953

00:07:35.746                             : en04)00:07:35:746

00:12:14.108                             : en05)00:12:14:108

00:14:54.977                             : en06)00:14:54:977

00:17:11.947                             : en07)00:17:11:947

00:18:38.367                             : en000:18:38:367

00:21:55.147                             : en09)00:21:55:147

00:24:38.518                             : en10)00:24:38:518

00:27:15.216                             : en11)00:27:15:216

00:28:35.964                             : en12)00:28:35:964

00:30:48.513                             : en13)00:30:48:513

00:33:06.401                             : en14)00:33:06:401

00:37:45.763                             : en15)00:37:45:763

00:42:10.319                             : en16)00:42:10:319

00:44:07.853                             : en17)00:44:07:853

00:47:43.860                             : en100:47:43:860

00:51:07.230                             : en19)00:51:07:230

00:52:58.800                             : en20)00:52:58:800

00:56:57.038                             : en21)00:56:57:038

00:58:28.755                             : en22)00:58:28:755

01:02:56.731                             : en23)01:02:56:731

01:06:53.384                             : en24)01:06:53:384

01:10:48.077                             : en25)01:10:48:077

01:17:02.242                             : en26)01:17:02:242

01:18:48.223                             : en27)01:18:48:223

01:20:23.568                             : en201:20:23:568

01:27:30.620                             : en29)01:27:30:620




下载地址:
点击或右键另存为下载种子
相关电影
电影大百科
最新电影下载
最新剧集下载

如要下载电影资源请用电脑访问,本站所有片源均为高清

如果喜欢请大家支持正版到影院观看或购买正版

星云电影网 www.91ido.com