怪物史瑞克43D左右.1080p.3D.Half-SBS.x264.TrueHD.7.1-FGT 17GB

2017-06-21 12:06 / 星云电影网 / 动画

电影简介:◎译 名 怪物史瑞克4/史力加万岁万万岁(港)/史瑞克快乐4神仙(台)/怪物史莱克4/史瑞克4/史力加4 ◎片 名 Shrek Forever After ◎年 代 2010 ◎产 地 美国 ◎类 别 喜剧/动作/动画/冒险 ◎语 言 英语 ◎上映日期 2010-05-21(美国)/2010-08-16(中国大陆) ◎IMDb

Shrek.Forever.After.2010.1080p.3D.BluRay.Half-SBS.x264.TrueHD.7.1-FGT

◎译  名 怪物史瑞克4/史力加万岁万万岁(港)/史瑞克快乐4神仙(台)/怪物史莱克4/史瑞克4/史力加4

◎片  名 Shrek Forever After

◎年  代 2010

◎产  地 美国

◎类  别 喜剧/动作/动画/冒险

◎语  言 英语

◎上映日期 2010-05-21(美国)/2010-08-16(中国大陆)

◎IMDb评分  6.3/10 from 147,737 users

◎IMDb链接  http://www.imdb.com/title/tt0892791/

◎豆瓣评分 7.5/10 from 42,820 users

◎豆瓣链接 https://movie.douban.com/subject/2072478/

◎BT之家整理 http://www.btbtt.co 

◎片  长 93分钟

◎导  演 迈克·米歇尔 Mike Mitchell

◎主  演 麦克·梅尔斯 Mike Myers

      艾迪·墨菲 Eddie Murphy

      卡梅隆·迪亚茨 Cameron Diaz

      安东尼奥·班德拉斯 Antonio Banderas

      朱莉·安德鲁斯 Julie Andrews

      约翰·克立斯 John Cleese

      乔恩·哈姆 Jon Hamm

      Craig Robinson

      Walt Dohrn


◎简  


  史莱克(麦克·梅尔斯 Mike Myers 配音)与菲奥纳公主(卡梅隆·迪亚兹Cameron Diaz 配音)和三胞胎宝贝幸福生活在一起后,他却对日复一日的平淡生活不满起来。在一次与菲奥纳公主激烈争吵后,他遇到了魔法师侏儒怪(沃尔特·道恩 Walt Dohrn 配音),并与其签订了“一天换一天”的魔法条约。但史莱克没想到,侏儒怪拿走的竟是他出生的那天,结果整个遥远王国变得面目全非,侏儒怪成了国王,派出无数女巫到处搜捕食人魔为奴。而若在日出之前史莱克无法获得菲奥纳公主的真爱之吻,他将彻底消失。焦急的史莱克再次初遇好朋友骡子(艾迪·墨菲 Eddie Murphy 配音),而靴猫剑客(安东尼奥·班德拉斯 Antonio Banderas 配音)则变成了菲奥纳公主的宠物肥猫。在他们的帮助下,史莱克竭尽全力赢取菲奥纳公主的芳心,只可惜事态发展远不如想象顺利……


◎获奖情况


  第38届动画安妮奖  (2011)

  佳配音(提名) 卡梅隆·迪亚茨

  最佳配乐(提名) 哈里·格雷格森-威廉姆斯

  最佳分镜(提名)

  最佳艺术指导(提名)

  最佳动画效果(提名)


  第12届美国青少年选择奖  (2010)

  最佳动画片(提名)



Video

ID                                       : 1

Format                                   : AVC

Format/Info                              : Advanced Video Codec

Format profile                           : [email protected]

Format settings, CABAC                   : Yes

Format settings, ReFrames                : 2 frames

Codec ID                                 : V_MPEG4/ISO/AVC

Duration                                 : 1 h 33 min

Nominal bit rate                         : 15.5 Mb/s

Width                                    : 1 920 pixels

Height                                   : 1 080 pixels

Display aspect ratio                     : 16:9

Frame rate mode                          : Constant

Frame rate                               : 23.976 (24000/1001) FPS

Color space                              : YUV

Chroma subsampling                       : 4:2:0

Bit depth                                : 8 bits

Scan type                                : Progressive

Bits/(Pixel*Frame)                       : 0.312

Title                                    : Shrek.Forever.After.2010.1080p.3D.BluRay.Half-SBS.x264.TrueHD.7.1-FGT

Writing library                          : x264 core 142

Encoding settings                        : cabac=1 / ref=1 / deblock=1:-1:-1 / analyse=0x3:0 / me=hex / subme=5 / psy=0 / mixed_ref=0 / me_range=16 / chroma_me=1 / trellis=0 / 8x8dct=1 / cqm=0 / deadzone=21,11 / fast_pskip=0 / chroma_qp_offset=0 / threads=8 / lookahead_threads=2 / sliced_threads=0 / nr=0 / decimate=1 / interlaced=0 / bluray_compat=0 / constrained_intra=0 / bframes=2 / b_pyramid=0 / b_adapt=1 / b_bias=0 / direct=1 / weightb=0 / open_gop=0 / weightp=0 / keyint=24 / keyint_min=13 / scenecut=40 / intra_refresh=0 / rc=2pass / mbtree=0 / bitrate=15500 / ratetol=1.0 / qcomp=0.60 / qpmin=0 / qpmax=69 / qpstep=4 / cplxblur=20.0 / qblur=0.5 / ip_ratio=1.40 / pb_ratio=1.30 / aq=1:1.00

Default                                  : Yes

Forced                                   : No

Color range                              : Limited

Color primaries                          : BT.709

Transfer characteristics                 : BT.709

Matrix coefficients                      : BT.709


Audio #1

ID                                       : 2

Format                                   : TrueHD

Codec ID                                 : A_TRUEHD

Duration                                 : 1 h 33 min

Bit rate mode                            : Variable

Maximum bit rate                         : 6 408 kb/s

Channel(s)                               : 8 channels

Channel positions                        : Front: L C R, Side: L R, Back: L R, LFE

Sampling rate                            : 48.0 kHz

Frame rate                               : 1 200.000 FPS (40 spf)

Compression mode                         : Lossless

Title                                    : Shrek.Forever.After.2010.1080p.3D.BluRay.Half-SBS.x264.TrueHD.7.1-FGT

Language                                 : English

Default                                  : Yes

Forced                                   : No


Audio #2

ID                                       : 3

Format                                   : AC-3

Format/Info                              : Audio Coding 3

Format settings, Endianness              : Big

Codec ID                                 : A_AC3

Duration                                 : 1 h 33 min

Bit rate mode                            : Constant

Bit rate                                 : 640 kb/s

Channel(s)                               : 6 channels

Channel positions                        : Front: L C R, Side: L R, LFE

Sampling rate                            : 48.0 kHz

Frame rate                               : 31.250 FPS (1536 spf)

Bit depth                                : 16 bits

Compression mode                         : Lossy

Stream size                              : 427 MiB (2%)

Title                                    : Shrek.Forever.After.2010.1080p.3D.BluRay.Half-SBS.x264.TrueHD.7.1-FGT

Language                                 : English

Service kind                             : Complete Main

Default                                  : No

Forced                                   : No


Audio #3

ID                                       : 4

Format                                   : AC-3

Format/Info                              : Audio Coding 3

Format settings, Endianness              : Big

Codec ID                                 : A_AC3

Duration                                 : 1 h 33 min

Bit rate mode                            : Constant

Bit rate                                 : 640 kb/s

Channel(s)                               : 6 channels

Channel positions                        : Front: L C R, Side: L R, LFE

Sampling rate                            : 48.0 kHz

Frame rate                               : 31.250 FPS (1536 spf)

Bit depth                                : 16 bits

Compression mode                         : Lossy

Stream size                              : 427 MiB (2%)

Title                                    : Shrek.Forever.After.2010.1080p.3D.BluRay.Half-SBS.x264.TrueHD.7.1-FGT

Language                                 : German

Service kind                             : Complete Main

Default                                  : No

Forced                                   : No


Audio #4

ID                                       : 5

Format                                   : AC-3

Format/Info                              : Audio Coding 3

Format settings, Endianness              : Big

Codec ID                                 : A_AC3

Duration                                 : 1 h 33 min

Bit rate mode                            : Constant

Bit rate                                 : 640 kb/s

Channel(s)                               : 6 channels

Channel positions                        : Front: L C R, Side: L R, LFE

Sampling rate                            : 48.0 kHz

Frame rate                               : 31.250 FPS (1536 spf)

Bit depth                                : 16 bits

Compression mode                         : Lossy

Stream size                              : 427 MiB (2%)

Title                                    : Shrek.Forever.After.2010.1080p.3D.BluRay.Half-SBS.x264.TrueHD.7.1-FGT

Language                                 : Spanish

Service kind                             : Complete Main

Default                                  : No

Forced                                   : No


Audio #5

ID                                       : 6

Format                                   : AC-3

Format/Info                              : Audio Coding 3

Format settings, Endianness              : Big

Codec ID                                 : A_AC3

Duration                                 : 1 h 33 min

Bit rate mode                            : Constant

Bit rate                                 : 640 kb/s

Channel(s)                               : 6 channels

Channel positions                        : Front: L C R, Side: L R, LFE

Sampling rate                            : 48.0 kHz

Frame rate                               : 31.250 FPS (1536 spf)

Bit depth                                : 16 bits

Compression mode                         : Lossy

Stream size                              : 427 MiB (2%)

Title                                    : Shrek.Forever.After.2010.1080p.3D.BluRay.Half-SBS.x264.TrueHD.7.1-FGT

Language                                 : French

Service kind                             : Complete Main

Default                                  : No

Forced                                   : No


Audio #6

ID                                       : 7

Format                                   : AC-3

Format/Info                              : Audio Coding 3

Format settings, Endianness              : Big

Codec ID                                 : A_AC3

Duration                                 : 1 h 33 min

Bit rate mode                            : Constant

Bit rate                                 : 640 kb/s

Channel(s)                               : 6 channels

Channel positions                        : Front: L C R, Side: L R, LFE

Sampling rate                            : 48.0 kHz

Frame rate                               : 31.250 FPS (1536 spf)

Bit depth                                : 16 bits

Compression mode                         : Lossy

Stream size                              : 427 MiB (2%)

Title                                    : Shrek.Forever.After.2010.1080p.3D.BluRay.Half-SBS.x264.TrueHD.7.1-FGT

Language                                 : Italian

Service kind                             : Complete Main

Default                                  : No

Forced                                   : No


Audio #7

ID                                       : 8

Format                                   : AC-3

Format/Info                              : Audio Coding 3

Format settings, Endianness              : Big

Codec ID                                 : A_AC3

Duration                                 : 1 h 33 min

Bit rate mode                            : Constant

Bit rate                                 : 640 kb/s

Channel(s)                               : 6 channels

Channel positions                        : Front: L C R, Side: L R, LFE

Sampling rate                            : 48.0 kHz

Frame rate                               : 31.250 FPS (1536 spf)

Bit depth                                : 16 bits

Compression mode                         : Lossy

Stream size                              : 427 MiB (2%)

Title                                    : Shrek.Forever.After.2010.1080p.3D.BluRay.Half-SBS.x264.TrueHD.7.1-FGT

Language                                 : Korean

Service kind                             : Complete Main

Default                                  : No

Forced                                   : No


Audio #8

ID                                       : 9

Format                                   : AC-3

Format/Info                              : Audio Coding 3

Format settings, Endianness              : Big

Codec ID                                 : A_AC3

Duration                                 : 1 h 33 min

Bit rate mode                            : Constant

Bit rate                                 : 640 kb/s

Channel(s)                               : 6 channels

Channel positions                        : Front: L C R, Side: L R, LFE

Sampling rate                            : 48.0 kHz

Frame rate                               : 31.250 FPS (1536 spf)

Bit depth                                : 16 bits

Compression mode                         : Lossy

Stream size                              : 427 MiB (2%)

Title                                    : Shrek.Forever.After.2010.1080p.3D.BluRay.Half-SBS.x264.TrueHD.7.1-FGT

Language                                 : Chinese

Service kind                             : Complete Main

Default                                  : No

Forced                                   : No


Audio #9

ID                                       : 10

Format                                   : AC-3

Format/Info                              : Audio Coding 3

Format settings, Endianness              : Big

Codec ID                                 : A_AC3

Duration                                 : 1 h 33 min

Bit rate mode                            : Constant

Bit rate                                 : 640 kb/s

Channel(s)                               : 6 channels

Channel positions                        : Front: L C R, Side: L R, LFE

Sampling rate                            : 48.0 kHz

Frame rate                               : 31.250 FPS (1536 spf)

Bit depth                                : 16 bits

Compression mode                         : Lossy

Stream size                              : 427 MiB (2%)

Title                                    : Shrek.Forever.After.2010.1080p.3D.BluRay.Half-SBS.x264.TrueHD.7.1-FGT

Language                                 : Dutch

Service kind                             : Complete Main

Default                                  : No

Forced                                   : No


Audio #10

ID                                       : 11

Format                                   : AC-3

Format/Info                              : Audio Coding 3

Format settings, Endianness              : Big

Codec ID                                 : A_AC3

Duration                                 : 1 h 33 min

Bit rate mode                            : Constant

Bit rate                                 : 640 kb/s

Channel(s)                               : 6 channels

Channel positions                        : Front: L C R, Side: L R, LFE

Sampling rate                            : 48.0 kHz

Frame rate                               : 31.250 FPS (1536 spf)

Bit depth                                : 16 bits

Compression mode                         : Lossy

Stream size                              : 427 MiB (2%)

Title                                    : Shrek.Forever.After.2010.1080p.3D.BluRay.Half-SBS.x264.TrueHD.7.1-FGT

Language                                 : Portuguese

Service kind                             : Complete Main

Default                                  : No

Forced                                   : No


Audio #11

ID                                       : 12

Format                                   : AC-3

Format/Info                              : Audio Coding 3

Format settings, Endianness              : Big

Codec ID                                 : A_AC3

Duration                                 : 1 h 33 min

Bit rate mode                            : Constant

Bit rate                                 : 640 kb/s

Channel(s)                               : 6 channels

Channel positions                        : Front: L C R, Side: L R, LFE

Sampling rate                            : 48.0 kHz

Frame rate                               : 31.250 FPS (1536 spf)

Bit depth                                : 16 bits

Compression mode                         : Lossy

Stream size                              : 427 MiB (2%)

Title                                    : Shrek.Forever.After.2010.1080p.3D.BluRay.Half-SBS.x264.TrueHD.7.1-FGT

Language                                 : Russian

Service kind                             : Complete Main

Default                                  : No

Forced                                   : No


Audio #12

ID                                       : 13

Format                                   : AC-3

Format/Info                              : Audio Coding 3

Format settings, Endianness              : Big

Codec ID                                 : A_AC3

Duration                                 : 1 h 33 min

Bit rate mode                            : Constant

Bit rate                                 : 640 kb/s

Channel(s)                               : 6 channels

Channel positions                        : Front: L C R, Side: L R, LFE

Sampling rate                            : 48.0 kHz

Frame rate                               : 31.250 FPS (1536 spf)

Bit depth                                : 16 bits

Compression mode                         : Lossy

Stream size                              : 427 MiB (2%)

Title                                    : Shrek.Forever.After.2010.1080p.3D.BluRay.Half-SBS.x264.TrueHD.7.1-FGT

Language                                 : Turkish

Service kind                             : Complete Main

Default                                  : No

Forced                                   : No


Text #1

ID                                       : 14

Format                                   : PGS

Muxing mode                              : zlib

Codec ID                                 : S_HDMV/PGS

Codec ID/Info                            : Picture based subtitle format used on BDs/HD-DVDs

Title                                    : English-PGS

Language                                 : English

Default                                  : Yes

Forced                                   : No


Text #2

ID                                       : 15

Format                                   : PGS

Muxing mode                              : zlib

Codec ID                                 : S_HDMV/PGS

Codec ID/Info                            : Picture based subtitle format used on BDs/HD-DVDs

Title                                    : German-PGS

Language                                 : German

Default                                  : No

Forced                                   : No


Text #3

ID                                       : 16

Format                                   : PGS

Muxing mode                              : zlib

Codec ID                                 : S_HDMV/PGS

Codec ID/Info                            : Picture based subtitle format used on BDs/HD-DVDs

Title                                    : Spanish-PGS

Language                                 : Spanish

Default                                  : No

Forced                                   : No


Text #4

ID                                       : 17

Format                                   : PGS

Muxing mode                              : zlib

Codec ID                                 : S_HDMV/PGS

Codec ID/Info                            : Picture based subtitle format used on BDs/HD-DVDs

Title                                    : French-PGS

Language                                 : French

Default                                  : No

Forced                                   : No


Text #5

ID                                       : 18

Format                                   : PGS

Muxing mode                              : zlib

Codec ID                                 : S_HDMV/PGS

Codec ID/Info                            : Picture based subtitle format used on BDs/HD-DVDs

Title                                    : Italian-PGS

Language                                 : Italian

Default                                  : No

Forced                                   : No


Text #6

ID                                       : 19

Format                                   : PGS

Muxing mode                              : zlib

Codec ID                                 : S_HDMV/PGS

Codec ID/Info                            : Picture based subtitle format used on BDs/HD-DVDs

Title                                    : Korean-PGS

Language                                 : Korean

Default                                  : No

Forced                                   : No


Text #7

ID                                       : 20

Format                                   : PGS

Muxing mode                              : zlib

Codec ID                                 : S_HDMV/PGS

Codec ID/Info                            : Picture based subtitle format used on BDs/HD-DVDs

Title                                    : Chinese-PGS

Language                                 : Chinese

Default                                  : No

Forced                                   : No


Text #8

ID                                       : 21

Format                                   : PGS

Muxing mode                              : zlib

Codec ID                                 : S_HDMV/PGS

Codec ID/Info                            : Picture based subtitle format used on BDs/HD-DVDs

Title                                    : Dutch-PGS

Language                                 : Dutch

Default                                  : No

Forced                                   : No


Text #9

ID                                       : 22

Format                                   : PGS

Muxing mode                              : zlib

Codec ID                                 : S_HDMV/PGS

Codec ID/Info                            : Picture based subtitle format used on BDs/HD-DVDs

Title                                    : Portuguese-PGS

Language                                 : Portuguese

Default                                  : No

Forced                                   : No


Text #10

ID                                       : 23

Format                                   : PGS

Muxing mode                              : zlib

Codec ID                                 : S_HDMV/PGS

Codec ID/Info                            : Picture based subtitle format used on BDs/HD-DVDs

Title                                    : Russian-PGS

Language                                 : Russian

Default                                  : No

Forced                                   : No


Text #11

ID                                       : 24

Format                                   : PGS

Muxing mode                              : zlib

Codec ID                                 : S_HDMV/PGS

Codec ID/Info                            : Picture based subtitle format used on BDs/HD-DVDs

Title                                    : Turkish-PGS

Language                                 : Turkish

Default                                  : No

Forced                                   : No


Menu

00:00:00.000                             : en01)00:00:00:000

00:05:32.373                             : en02)00:05:32:373

00:12:43.637                             : en03)00:12:43:637

00:19:44.183                             : en04)00:19:44:183

00:24:41.480                             : en05)00:24:41:480

00:31:34.726                             : en06)00:31:34:726

00:37:52.311                             : en07)00:37:52:311

00:42:36.554                             : en000:42:36:554

00:48:31.450                             : en09)00:48:31:450

00:54:22.217                             : en10)00:54:22:217

00:59:53.756                             : en11)00:59:53:756

01:05:47.860                             : en12)01:05:47:860

01:10:30.643                             : en13)01:10:30:643

01:15:03.707                             : en14)01:15:03:707

01:19:55.791                             : en15)01:19:55:791

01:26:00.363                             : en16)01:26:00:363





下载地址:
点击或右键另存为下载种子
相关电影
电影大百科
最新电影下载
最新剧集下载

如要下载电影资源请用电脑访问,本站所有片源均为高清

如果喜欢请大家支持正版到影院观看或购买正版

星云电影网 www.91ido.com