布拉芙夫人.Scarlet Innocence..KR.1920x1040p.x264.AC3-KOOK.中英双字7.9

2017-06-21 12:06 / 星云电影网 / 爱情

电影简介:布拉芙夫人.Scarlet Innocence.2014.KR.BluRay.1920x1040p.x264.AC3-KOOK.[中英双字]7.98G ※※※※※※※ 影片信息 ※※※※※※※ ◎片 名 布拉芙夫人 ◎译 名 情欲诱惑(台) / Scarlet Innocence ◎年 代 2014 ◎国 家 韩国 ◎类 别 爱情 / 惊悚 / 情色 ◎

布拉芙夫人.Scarlet Innocence.2014.KR.BluRay.1920x1040p.x264.AC3-KOOK.[中英双字]7.98G




※※※※※※※ 影片信息 ※※※※※※※


◎片   名 布拉芙夫人

◎译   名 情欲诱惑(台) / Scarlet Innocence

◎年   代 2014

◎国   家 韩国

◎类   别 爱情 / 惊悚 / 情色

◎语   言 韩语

◎上映日 期 2014-10-02(韩国)

◎字   幕 中英双字/简体字幕/繁体字幕/英文字幕

◎IMDB 评分  5.9/10 from 459 users

◎豆瓣 评分  5.8/10 from 8154 users

视频尺 寸  1920x1040p

◎片   长 1.52.22

◎导   演 任弼星

◎编     剧  Yoon-mi Jang / 任弼星

◎主   演 郑雨盛 / 李絮 / 朴晓英




 

◎简  


  大学教授学奎(郑雨盛 饰)因为一场性丑闻而失去了一切,被贬值到十分偏远的小镇任职。在那里,学奎遇见了美丽的少女德伊(李絮 饰),两人坠入爱河。然而,不久之后,学奎官复原职,即将回到大都市首尔,为了自己的前途,学奎残忍的抛弃了德伊。 

  一晃眼八年过去,此时的学奎已经成为了小有名气的作家,事业走上的巅峰,前途一片光明。可是,就在这个节骨眼上,他却患上了不治的眼疾,视力一天一天的退化下去。某日,学奎的隔壁搬来了一位名为世静的女子,世静待学奎十分亲切,在生活中对他无微不至。随着时间的推移,学奎觉得自己已经离不开世静了。然而,目不能视的学奎并不知道,世静的真正身份,正是曾被自己抛弃的德伊。





※※※※※※※ 参数信息 ※※※※※※※



General

Unique ID                      : 174866786583602326692706085024338164972 (0x838E1E38EB3BBBF192AE2B9E1CF63CEC)


Format                         : Matroska

Format version                 : Version 4 / Version 2

File size                      : 7.99 GiB

Duration                       : 1 h 52 min

Overall bit rate               : 10.2 Mb/s

Encoded date                   : UTC 2017-06-20 13:24:56

Writing application            : mkvmerge v9.4.2 ('So High') 64bit

Writing library                : libebml v1.3.4 + libmatroska v1.4.5

Attachments                    : 正式海报 韩国.jpg / STKAITI.TTF / msyh.ttf / msyhbd.ttf


Video

ID                             : 1

Format                         : AVC

Format/Info                    : Advanced Video Codec

Format profile                 : [email protected]

Format settings, CABAC         : Yes

Format settings, ReFrames      : 4 frames

Codec ID                       : V_MPEG4/ISO/AVC

Duration                       : 1 h 52 min

Bit rate                       : 9 479 kb/s

Width                          : 1 920 pixels

Height                         : 1 040 pixels

Display aspect ratio           : 1.85:1

Frame rate mode                : Constant

Frame rate                     : 24.000 FPS

Color space                    : YUV

Chroma subsampling             : 4:2:0

Bit depth                      : 8 bits

Scan type                      : Progressive

Bits/(Pixel*Frame)             : 0.198

Stream size                    : 7.44 GiB (93%)

Writing library                : x264 core 146 r2538 121396c

Encoding settings              : cabac=1 / ref=4 / deblock=1:0:0 / analyse=0x3:0x133 / me=umh / subme=8 / psy=1 / psy_rd=1.00:0.00 / mixed_ref=1 / me_range=16 / chroma_me=1 / trellis=1 / 8x8dct=1 / cqm=0 / deadzone=21,11 / fast_pskip=0 / chroma_qp_offset=-2 / threads=12 / lookahead_threads=2 / sliced_threads=0 / nr=0 / decimate=1 / interlaced=0 / bluray_compat=0 / constrained_intra=0 / bframes=3 / b_pyramid=2 / b_adapt=1 / b_bias=0 / direct=1 / weightb=1 / open_gop=0 / weightp=2 / keyint=250 / keyint_min=24 / scenecut=40 / intra_refresh=0 / rc_lookahead=40 / rc=2pass / mbtree=1 / bitrate=9479 / ratetol=1.0 / qcomp=0.60 / qpmin=0 / qpmax=69 / qpstep=4 / cplxblur=20.0 / qblur=0.5 / ip_ratio=1.40 / aq=1:1.00

Language                       : Korean

Default                        : Yes

Forced                         : No


Audio

ID                             : 2

Format                         : AC-3

Format/Info                    : Audio Coding 3

Mode extension                 : CM (complete main)

Format settings, Endianness    : Big

Codec ID                       : A_AC3

Duration                       : 1 h 52 min

Bit rate mode                  : Constant

Bit rate                       : 640 kb/s

Channel(s)                     : 6 channels

Channel positions              : Front: L C R, Side: L R, LFE

Sampling rate                  : 48.0 kHz

Frame rate                     : 31.250 FPS (1536 spf)

Compression mode               : Lossy

Stream size                    : 514 MiB (6%)

Language                       : Korean

Default                        : Yes

Forced                         : No


Text #1

ID                             : 3

Format                         : ASS

Codec ID                       : S_TEXT/ASS

Codec ID/Info                  : Advanced Sub Station Alpha

Duration                       : 1 h 49 min

Bit rate                       : 153 b/s

Count of elements              : 873

Compression mode               : Lossless

Stream size                    : 122 KiB (0%)

Title                          : 中英字幕

Language                       : Chinese

Default                        : Yes

Forced                         : No


Text #2

ID                             : 4

Format                         : ASS

Codec ID                       : S_TEXT/ASS

Codec ID/Info                  : Advanced Sub Station Alpha

Duration                       : 1 h 49 min

Bit rate                       : 72 b/s

Count of elements              : 873

Compression mode               : Lossless

Stream size                    : 58.2 KiB (0%)

Title                          : 简体字幕

Language                       : Chinese

Default                        : No

Forced                         : No


Text #3

ID                             : 5

Format                         : ASS

Codec ID                       : S_TEXT/ASS

Codec ID/Info                  : Advanced Sub Station Alpha

Duration                       : 1 h 49 min

Bit rate                       : 72 b/s

Count of elements              : 873

Compression mode               : Lossless

Stream size                    : 58.2 KiB (0%)

Title                          : 繁体字幕

Language                       : Chinese

Default                        : No

Forced                         : No


Text #4

ID                             : 6

Format                         : ASS

Codec ID                       : S_TEXT/ASS

Codec ID/Info                  : Advanced Sub Station Alpha

Duration                       : 1 h 49 min

Bit rate                       : 107 b/s

Count of elements              : 857

Compression mode               : Lossless

Stream size                    : 86.2 KiB (0%)

Title                          : 英文字幕

Language                       : English

Default                        : No

Forced                         : No

下载地址:
点击或右键另存为下载种子
相关电影
电影大百科
最新电影下载
最新剧集下载

如要下载电影资源请用电脑访问,本站所有片源均为高清

如果喜欢请大家支持正版到影院观看或购买正版

星云电影网 www.91ido.com