爱乐之城 .2160p.x264.8bit.SDR-HD.MA.TrueHD.7.1-SWT 58GB BD-P

2017-06-21 12:07 / 星云电影网 / 爱情

电影简介:◎译 名 爱乐之城/星声梦里人(港)/乐来越爱你(台)/爵士情缘/啦啦之地 ◎片 名 La La Land ◎年 代 2016 ◎产 地 美国 ◎类 别 剧情/爱情/歌舞 ◎语 言 英语 ◎上映日期 2016-08-31(威尼斯电影节)/2016-12-25(美国)/2017-02-14(中国大陆) ◎IMDb评分 8.2/10 f

La.La.Land.2016.2160p.BluRay.x264.8bit.SDR.DTS-HD.MA.TrueHD.7.1.Atmos-SWTYBLZ

◎译  名 爱乐之城/星声梦里人(港)/乐来越爱你(台)/爵士情缘/啦啦之地

◎片  名 La La Land

◎年  代 2016

◎产  地 美国

◎类  别 剧情/爱情/歌舞

◎语  言 英语

◎上映日期 2016-08-31(威尼斯电影节)/2016-12-25(美国)/2017-02-14(中国大陆)

◎IMDb评分  8.2/10 from 271,299 users

◎IMDb链接  http://www.imdb.com/title/tt3783958/

◎豆瓣评分 8.3/10 from 293,092 users

◎豆瓣链接 https://movie.douban.com/subject/25934014/

◎BT之家整理 http://www.btbtt.co 

◎片  长 128分钟

◎导  演 达米恩·查泽雷 Damien Chazelle

◎主  演 瑞恩·高斯林 Ryan Gosling

      艾玛·斯通 Emma Stone

      约翰·传奇 John Legend

      罗丝玛丽·德薇特 Rosemarie DeWitt

      芬·维特洛克 Finn Wittrock

      杰西卡·罗德 Jessica Rothe

      水野索诺娅 Sonoya Mizuno

      考莉·赫尔南德斯 Callie Hernandez

      J·K·西蒙斯 J.K. Simmons

      汤姆·艾弗瑞特·斯科特 Tom Everett Scott

      米根·费伊 Meagen Fay

      达蒙·冈普顿 Damon Gupton

      贾森·福克斯 Jason Fuchs

      乔什·平茨 Josh Pence

      艾米·科恩 Amiée Conn

      特里·沃尔特斯 Terry Walters

      汤姆·谢尔顿 Thom Shelton

      信达·亚当斯 Cinda Adams

      克劳丁·克劳迪奥 Claudine Claudio

      D·A·瓦拉赫 D.A. Wallach

      特雷弗·里斯奥尔 Trevor Lissauer

      奥莉维亚·汉密尔顿 Olivia Hamilton

      安娜·查泽雷 Anna Chazelle

      马里乌斯·代·弗里斯 Marius De Vries

      妮科尔·库隆 Nicole Coulon

      迈尔斯·安德森 Miles Anderson

      约翰·辛德曼 John Hindman

      瓦拉里·雷·米勒 Valarie Rae Miller

      基夫·范登·霍伊维尔 Kiff Vanden Heuvel

      佐伊·霍尔 Zo? Hall

      登普西·帕皮恩 Dempsey Pappion

      辛德拉·车 Cindera Che


◎简  


  米娅(艾玛·斯通 Emma Stone 饰)渴望成为一名演员,但至今她仍旧只是片场咖啡厅里的一名平凡的咖啡师,尽管不停的参加着大大小小的试镜,但米娅收获的只有失败。某日,在一场派对之中,米娅邂逅了名为塞巴斯汀(瑞恩·高斯林 Ryan Gosling 饰)的男子,起初两人之间产生了小小的矛盾,但很快,米娅便被塞巴斯汀身上闪耀的才华以及他对爵士乐的纯粹追求所吸引,终两人走到了一起。

  在塞巴斯汀的鼓励下,米娅辞掉了咖啡厅的工作,专心为自己写起了剧本,与此同时,塞巴斯汀为了获得一份稳定的收入,加入了一支流行爵士乐队,开始演奏自己并不喜欢的现代爵士乐,没想到一炮而红。随着时间的推移,努力追求梦想的两人,彼此之间的距离却越来越远,在理想和感情之间,他们必须做出选择。


◎获奖情况


  第89届奥斯卡金像奖  (2017)

  最佳影片(提名) 约旦·霍洛维茨 / 弗雷德·伯杰 / 马克·普拉特

  最佳导演 达米恩·查泽雷

  最佳男主角(提名) 瑞恩·高斯林

  最佳女主角 艾玛·斯通

  最佳原创剧本(提名) 达米恩·查泽雷

  最佳剪辑(提名) 汤姆·克罗斯

  最佳摄影 莱纳斯·桑德格伦

  最佳混音(提名) 史蒂文·莫罗 / Ai-Ling Lee / 安迪·尼尔森

  最佳音效剪辑(提名) Mildred Iatrou / Ai-Ling Lee

  最佳艺术指导 Sandy Reynolds-Wasco / 大卫·维斯克

  最佳服装设计(提名) 玛丽·索弗瑞斯

  最佳原创配乐 贾斯汀·赫维兹

  最佳原创歌曲 贾斯汀·赫维兹 / 本吉·帕塞克 / 贾斯廷·保罗

  最佳原创歌曲(提名) 贾斯汀·赫维兹 / 本吉·帕塞克 / 贾斯廷·保罗


  第73届威尼斯电影节  (2016)

  主竞赛单元 金狮奖 (提名)

  沃尔皮杯 最佳女演员(威尼斯影后) 艾玛·斯通


  第74届金球奖  (2017)

  电影类 最佳音乐/喜剧

  电影类 音乐/喜剧片最佳男主角 瑞恩·高斯林

  电影类 音乐/喜剧片最佳女主角 艾玛·斯通

  电影类 最佳导演 达米恩·查泽雷

  电影类 最佳编剧 达米恩·查泽雷

  电影类 最佳原创配乐 贾斯汀·赫维兹

  电影类 最佳原创歌曲


  第70届英国电影学院奖  (2017)

  电影奖 最佳影片

  电影奖 最佳导演 达米恩·查泽雷

  电影奖 最佳男主角(提名) 瑞恩·高斯林

  电影奖 最佳女主角 艾玛·斯通

  电影奖 最佳原创剧本(提名)

  电影奖 最佳摄影

  电影奖 最佳剪辑(提名)

  电影奖 最佳服装设计(提名)

  电影奖 最佳艺术指导(提名)

  电影奖 最佳原创音乐

  电影奖 最佳音效(提名)


  第41届多伦多国际电影节  (2016)

  观众选择奖


  第26届MTV电影奖  (2017)

  MTV电影奖 最佳吻戏(提名) 艾玛·斯通 / 瑞恩·高斯林


  第69届美国导演工会奖  (2017)

  最佳电影导演 达米恩·查泽雷


  第23届美国演员工会奖  (2017)

  电影奖 最佳男主角(提名) 瑞恩·高斯林

  电影奖 最佳女主角 艾玛·斯通


  第69届美国编剧工会奖  (2017)

  电影奖 最佳原创剧本(提名)


  第28届美国制片人工会奖  (2017)

  最佳电影制片人奖


  第31届美国摄影协会奖  (2017)

  电影长片最佳摄影(提名) 莱纳斯·桑德格伦


  第67届美国剪辑工会奖  (2017)

  音乐/喜剧片最佳剪辑


  第21届美国艺术指导工会奖  (2017)

  电影奖 最佳当代电影艺术指导


  第19届美国服装设计工会奖  (2017)

  现代题材电影最佳服装设计


  第53届美国声音效果协会奖  (2017)

  真人电影最佳音效


  第82届纽约影评人协会奖  (2016)

  最佳影片


  第88届美国国家评论协会奖  (2016)

  年度佳片(提名)


  第22届美国评论家选择电影奖  (2016)

  最佳影片

  最佳导演 达米恩·查泽雷

  最佳男主角(提名) 瑞恩·高斯林

  最佳女主角(提名) 艾玛·斯通

  最佳原创剧本 达米恩·查泽雷

  最佳摄影

  最佳剪辑

  最佳美术指导

  最佳配乐

  最佳歌曲

  最佳服装设计(提名)

  最佳音效(提名)


  第41届美国电影学会奖  (2016)

  年度佳片


  第20届好莱坞电影奖  (2016)

  年度摄影奖 莱纳斯·桑德格伦


  第15届华盛顿影评人协会奖  (2016)

  最佳影片

  最佳导演 达米恩·查泽雷

  最佳男主角(提名) 瑞恩·高斯林

  最佳女主角(提名) 艾玛·斯通

  最佳原创剧本 达米恩·查泽雷

  最佳摄影

  最佳剪辑 汤姆·克罗斯

  最佳原创配乐

  最佳艺术指导


  第37届伦敦影评人协会奖  (2017)

  年度电影

  年度导演(提名) 达米恩·查泽雷

  年度编剧(提名) 达米恩·查泽雷

  年度女主角(提名) 艾玛·斯通


  第37届波士顿影评人协会奖  (2016)

  最佳影片

  最佳导演 达米恩·查泽雷

  最佳剪辑 汤姆·克罗斯


  第42届洛杉矶影评人协会奖  (2016)

  最佳配乐 贾斯汀·赫维兹


Video
ID                                       : 1
Format                                   : AVC
Format/Info                              : Advanced Video Codec
Format profile                           : [email protected]
Format settings, CABAC                   : Yes
Format settings, ReFrames                : 5 frames
Codec ID                                 : V_MPEG4/ISO/AVC
Duration                                 : 2 h 7 min
Bit rate                                 : 56.1 Mb/s
Width                                    : 3 840 pixels
Height                                   : 1 504 pixels
Display aspect ratio                     : 2.553
Frame rate mode                          : Constant
Frame rate                               : 23.976 (24000/1001) FPS
Color space                              : YUV
Chroma subsampling                       : 4:2:0
Bit depth                                : 8 bits
Scan type                                : Progressive
Bits/(Pixel*Frame)                       : 0.405
Stream size                              : 50.6 GiB (87%)
Title                                    : La.La.Land.2016.2160p.BluRay.x264.8bit.SDR.DTS-HD.MA.TrueHD.7.1.Atmos-SWTYBLZ
Writing library                          : x264 core 148 r2748 97eaef2
Encoding settings                        : cabac=1 / ref=5 / deblock=1:-1:-1 / analyse=0x3:0x113 / me=umh / subme=10 / psy=1 / psy_rd=1.00:0.15 / mixed_ref=1 / me_range=48 / chroma_me=1 / trellis=2 / 8x8dct=1 / cqm=0 / deadzone=21,11 / fast_pskip=1 / chroma_qp_offset=-3 / threads=47 / lookahead_threads=3 / sliced_threads=0 / nr=0 / decimate=0 / interlaced=0 / bluray_compat=0 / constrained_intra=0 / bframes=3 / b_pyramid=2 / b_adapt=2 / b_bias=0 / direct=3 / weightb=1 / open_gop=0 / weightp=2 / keyint=250 / keyint_min=23 / scenecut=40 / intra_refresh=0 / rc_lookahead=50 / rc=crf / mbtree=1 / crf=19.0 / qcomp=0.60 / qpmin=0 / qpmax=69 / qpstep=4 / ip_ratio=1.40 / aq=1:1.00
Language                                 : English
Default                                  : Yes
Forced                                   : No

Audio #1
ID                                       : 2
Format                                   : DTS
Format/Info                              : Digital Theater Systems
Format profile                           : MA / Core
Mode                                     : 16
Format settings, Endianness              : Big
Codec ID                                 : A_DTS
Duration                                 : 2 h 7 min
Bit rate mode                            : Variable / Constant
Bit rate                                 : 3 840 kb/s / 1 509 kb/s
Channel(s)                               : 8 channels / 6 channels
Channel positions                        : Front: L C R, Side: L R, Back: L R, LFE / Front: L C R, Side: L R, LFE
Sampling rate                            : 48.0 kHz
Frame rate                               : 93.750 FPS (512 spf)
Bit depth                                : 24 bits
Compression mode                         : Lossless / Lossy
Stream size                              : 3.42 GiB (6%)
Title                                    : La.La.Land.2016.2160p.BluRay.x264.8bit.SDR.DTS-HD.MA.TrueHD.7.1.Atmos-SWTYBLZ
Language                                 : English
Default                                  : Yes
Forced                                   : No

Audio #2
ID                                       : 3
Format                                   : TrueHD
Format profile                           : TrueHD+Atmos / TrueHD
Codec ID                                 : A_TRUEHD
Duration                                 : 2 h 7 min
Bit rate mode                            : Variable
Bit rate                                 : 3 737 kb/s
Maximum bit rate                         : 7 230 kb/s
Channel(s)                               : Object Based / 8 channels
Channel positions                        : Object Based / Front: L C R, Side: L R, Back: L R, LFE
Sampling rate                            :  / 48.0 kHz
Frame rate                               : 1 200.000 FPS (40 spf)
Compression mode                         : Lossless
Stream size                              : 3.34 GiB (6%)
Title                                    : La.La.Land.2016.2160p.BluRay.x264.8bit.SDR.DTS-HD.MA.TrueHD.7.1.Atmos-SWTYBLZ
Language                                 : English
Default                                  : No
Forced                                   : No

Audio #3
ID                                       : 4
Format                                   : AC-3
Format/Info                              : Audio Coding 3
Format settings, Endianness              : Big
Codec ID                                 : A_AC3
Duration                                 : 2 h 7 min
Bit rate mode                            : Constant
Bit rate                                 : 640 kb/s
Channel(s)                               : 6 channels
Channel positions                        : Front: L C R, Side: L R, LFE
Sampling rate                            : 48.0 kHz
Frame rate                               : 31.250 FPS (1536 spf)
Bit depth                                : 16 bits
Compression mode                         : Lossy
Stream size                              : 586 MiB (1%)
Title                                    : La.La.Land.2016.2160p.BluRay.x264.8bit.SDR.DTS-HD.MA.TrueHD.7.1.Atmos-SWTYBLZ
Language                                 : English
Service kind                             : Complete Main
Default                                  : No
Forced                                   : No

Text #1
ID                                       : 5
Format                                   : UTF-8
Codec ID                                 : S_TEXT/UTF8
Codec ID/Info                            : UTF-8 Plain Text
Duration                                 : 1 h 59 min
Bit rate                                 : 48 b/s
Count of elements                        : 1203
Stream size                              : 42.3 KiB (0%)
Title                                    : English-SRT
Language                                 : English
Default                                  : Yes
Forced                                   : No

Text #2
ID                                       : 6
Format                                   : PGS
Muxing mode                              : zlib
Codec ID                                 : S_HDMV/PGS
Codec ID/Info                            : Picture based subtitle format used on BDs/HD-DVDs
Duration                                 : 1 h 59 min
Bit rate                                 : 15.4 kb/s
Count of elements                        : 2408
Stream size                              : 13.1 MiB (0%)
Title                                    : English-PGS
Language                                 : English
Default                                  : No
Forced                                   : No

Text #3
ID                                       : 7
Format                                   : PGS
Muxing mode                              : zlib
Codec ID                                 : S_HDMV/PGS
Codec ID/Info                            : Picture based subtitle format used on BDs/HD-DVDs
Duration                                 : 1 h 59 min
Bit rate                                 : 17.0 kb/s
Count of elements                        : 2718
Stream size                              : 14.6 MiB (0%)
Title                                    : English-SDH-PGS
Language                                 : English
Default                                  : No
Forced                                   : No

Text #4
ID                                       : 8
Format                                   : PGS
Muxing mode                              : zlib
Codec ID                                 : S_HDMV/PGS
Codec ID/Info                            : Picture based subtitle format used on BDs/HD-DVDs
Duration                                 : 2 h 1 min
Bit rate                                 : 14.5 kb/s
Count of elements                        : 2316
Stream size                              : 12.6 MiB (0%)
Title                                    : Spanish-PGS
Language                                 : Spanish
Default                                  : No
Forced                                   : No





下载地址:
点击或右键另存为下载种子
相关电影
电影大百科
最新电影下载
最新剧集下载

如要下载电影资源请用电脑访问,本站所有片源均为高清

如果喜欢请大家支持正版到影院观看或购买正版

星云电影网 www.91ido.com