燃烧的沙漠/灼沙 Burning.Sands.2017.720p.WEBRip.x264-STRiFE 1.41GB

2017-06-21 12:08 / 星云电影网 / 故事

电影简介:◎译 名 燃烧的沙漠/灼沙(台) ◎片 名 Burning Sands ◎年 代 2017 ◎产 地 美国 ◎类 别 剧情 ◎语 言 英语 ◎上映日期 2017-01(美国) ◎IMDb评分 6.2/10 from 1,294 users ◎IMDb链接 http://www.imdb.com/title/tt5826432/ ◎豆瓣评分 5.5/10 from 50 use

Burning.Sands.2017.720p.WEBRip.x264-STRiFE

◎译  名 燃烧的沙漠/灼沙(台)

◎片  名 Burning Sands

◎年  代 2017

◎产  地 美国

◎类  别 剧情

◎语  言 英语

◎上映日期 2017-01(美国)

◎IMDb评分  6.2/10 from 1,294 users

◎IMDb链接  http://www.imdb.com/title/tt5826432/

◎豆瓣评分 5.5/10 from 50 users

◎豆瓣链接 https://movie.douban.com/subject/26928556/

◎BT之家整理 http://www.btbtt.co

◎片  长 96分钟

◎导  演 Gerard McMurray

◎主  演 阿尔法·伍达德 Alfre Woodard

      崔凡特·罗兹 Trevante Rhodes

      Serayah McNeil

      伊马尼·哈基姆 Imani Hakim

      史蒂夫·哈里斯 Steve Harris

      特雷沃·杰克逊 Trevor Jackson

      Nafessa Williams

      Rotimi

      Chiké Okonkwo

      奥克塔维厄斯·J·约翰逊 Octavius J. Johnson

      Mitchell Edwards

      Cuyle Carvin

      Malik Bazille

      DeRon Horton

      Deji LaRay


◎简  


  Deep into Hell Week, a favored pledgee is torn between honoring his code of silence or standing up against the intensifying violence of underground hazing.


Video
ID                                       : 1
Format                                   : AVC
Format/Info                              : Advanced Video Codec
Format profile                           : [email protected]
Format settings, CABAC                   : Yes
Format settings, ReFrames                : 5 frames
Codec ID                                 : V_MPEG4/ISO/AVC
Duration                                 : 1h 42mn
Bit rate                                 : 1 590 Kbps
Width                                    : 1 280 pixels
Height                                   : 536 pixels
Display aspect ratio                     : 2.40:1
Frame rate mode                          : Constant
Frame rate                               : 23.976 (24000/1001) fps
Color space                              : YUV
Chroma subsampling                       : 4:2:0
Bit depth                                : 8 bits
Scan type                                : Progressive
Bits/(Pixel*Frame)                       : 0.097
Stream size                              : 1.14 GiB (80%)
Writing library                          : x264 core 150 r2833 df79067
Encoding settings                        : cabac=1 / ref=5 / deblock=1:-3:-3 / analyse=0x3:0x113 / me=umh / subme=8 / psy=1 / psy_rd=1.00:0.15 / mixed_ref=1 / me_range=16 / chroma_me=1 / trellis=2 / 8x8dct=1 / cqm=0 / deadzone=21,11 / fast_pskip=0 / chroma_qp_offset=-2 / threads=12 / lookahead_threads=2 / sliced_threads=0 / nr=0 / decimate=1 / interlaced=0 / bluray_compat=0 / constrained_intra=0 / bframes=3 / b_pyramid=2 / b_adapt=1 / b_bias=0 / direct=3 / weightb=1 / open_gop=0 / weightp=2 / keyint=240 / keyint_min=23 / scenecut=40 / intra_refresh=0 / rc_lookahead=50 / rc=crf / mbtree=1 / crf=18.0 / qcomp=0.60 / qpmin=0 / qpmax=69 / qpstep=4 / ip_ratio=1.40 / aq=3:0.80
Language                                 : English
Default                                  : Yes
Forced                                   : No

Audio
ID                                       : 2
Format                                   : AC-3
Format/Info                              : Audio Coding 3
Mode extension                           : CM (complete main)
Format settings, Endianness              : Big
Codec ID                                 : A_AC3
Duration                                 : 1h 42mn
Bit rate mode                            : Constant
Bit rate                                 : 384 Kbps
Channel(s)                               : 6 channels
Channel positions                        : Front: L C R, Side: L R, LFE
Sampling rate                            : 48.0 KHz
Frame rate                               : 31.250 fps (1536 spf)
Compression mode                         : Lossy
Stream size                              : 281 MiB (19%)
Language                                 : English
Default                                  : Yes
Forced                                   : No

Text #1
ID                                       : 3
Format                                   : UTF-8
Codec ID                                 : S_TEXT/UTF8
Codec ID/Info                            : UTF-8 Plain Text
Duration                                 : 1h 40mn
Bit rate                                 : 78 bps
Count of elements                        : 1731
Stream size                              : 58.2 KiB (0%)
Language                                 : English
Default                                  : Yes
Forced                                   : No

Text #2
ID                                       : 4
Format                                   : UTF-8
Codec ID                                 : S_TEXT/UTF8
Codec ID/Info                            : UTF-8 Plain Text
Duration                                 : 1h 41mn
Bit rate                                 : 51 bps
Count of elements                        : 1364
Stream size                              : 38.1 KiB (0%)
Language                                 : German
Default                                  : No
Forced                                   : No

Text #3
ID                                       : 5
Format                                   : UTF-8
Codec ID                                 : S_TEXT/UTF8
Codec ID/Info                            : UTF-8 Plain Text
Duration                                 : 1h 35mn
Bit rate                                 : 64 bps
Count of elements                        : 1290
Stream size                              : 44.8 KiB (0%)
Language                                 : French
Default                                  : No
Forced                                   : No

Text #4
ID                                       : 6
Format                                   : UTF-8
Codec ID                                 : S_TEXT/UTF8
Codec ID/Info                            : UTF-8 Plain Text
Duration                                 : 1h 41mn
Bit rate                                 : 47 bps
Count of elements                        : 1414
Stream size                              : 35.4 KiB (0%)
Language                                 : Italian
Default                                  : No
Forced                                   : No


下载地址:
点击或右键另存为下载种子
相关电影
电影大百科
最新电影下载
最新剧集下载

如要下载电影资源请用电脑访问,本站所有片源均为高清

如果喜欢请大家支持正版到影院观看或购买正版

星云电影网 www.91ido.com