相机店 Camera.Store..1080p.DD5.1-FGT 3.63GB

2017-06-21 12:08 / 星云电影网 / 故事

电影简介:◎译 名 ◎片 名 Camera Store ◎年 代 2016 ◎产 地 美国 ◎类 别 剧情 ◎语 言 英语 ◎上映日期 2016 ◎IMDb评分 9.4/10 from 808 users ◎IMDb链接 http://www.imdb.com/title/tt4651666/ ◎BT之家整理http://www.btbtt.co ◎片 长 105分钟/99分钟 ◎导

Camera.Store.2016.1080p.WEB-DL.DD5.1.H264-FGT

◎译  名 

◎片  名 Camera Store

◎年  代 2016

◎产  地 美国

◎类  别 剧情

◎语  言 英语

◎上映日期 2016

◎IMDb评分  9.4/10 from 808 users

◎IMDb链接  http://www.imdb.com/title/tt4651666/

◎BT之家整理 http://www.btbtt.co

◎片  长 105分钟/99分钟

◎导  演 斯科特·马歇尔·史密斯 Scott Marshall Smith

◎主  演 约翰·瑞斯-戴维斯 John Rhys-Davies

      切瑞·拉德 Cheryl Ladd

      约翰·拉尔奎特 John Larroquette

      劳拉·希尔维曼 Laura Silverman

      大卫·詹姆斯·艾略特 David James Elliott

      劳拉·凯洛蒂 Laura Cayouette

      保罗·本-维克托 Paul Ben-Victor

      比利·斯洛特 Billy Slaughter

      劳拉·格赖斯 Lara Grice

      亨特·巴克 Hunter Burke

      乔什·佩里 Josh Perry


◎简  


  On Christmas Eve 1994 a washed out camera store manager must finally confront his fears when an unexpected young employee is forced upon him by his vindictive boss.


Video
ID                                       : 1
Format                                   : AVC
Format/Info                              : Advanced Video Codec
Format profile                           : [email protected]
Format settings, CABAC                   : Yes
Format settings, ReFrames                : 5 frames
Codec ID                                 : V_MPEG4/ISO/AVC
Duration                                 : 1 h 44 min
Bit rate                                 : 4 494 kb/s
Width                                    : 1 920 pixels
Height                                   : 800 pixels
Display aspect ratio                     : 2.40:1
Frame rate mode                          : Constant
Frame rate                               : 23.976 (24000/1001) FPS
Color space                              : YUV
Chroma subsampling                       : 4:2:0
Bit depth                                : 8 bits
Scan type                                : Progressive
Bits/(Pixel*Frame)                       : 0.122
Stream size                              : 3.27 GiB (90%)
Title                                    : Camera.Store.2016.1080p.WEB-DL.DD5.1.H264-FGT
Language                                 : English
Default                                  : Yes
Forced                                   : No
Color range                              : Limited
Color primaries                          : BT.709
Transfer characteristics                 : BT.709
Matrix coefficients                      : BT.709

Audio
ID                                       : 2
Format                                   : AC-3
Format/Info                              : Audio Coding 3
Format settings, Endianness              : Big
Codec ID                                 : A_AC3
Duration                                 : 1 h 44 min
Bit rate mode                            : Constant
Bit rate                                 : 384 kb/s
Channel(s)                               : 6 channels
Channel positions                        : Front: L C R, Side: L R, LFE
Sampling rate                            : 48.0 kHz
Frame rate                               : 31.250 FPS (1536 spf)
Bit depth                                : 16 bits
Compression mode                         : Lossy
Delay relative to video                  : -42 ms
Stream size                              : 286 MiB (8%)
Title                                    : Camera.Store.2016.1080p.WEB-DL.DD5.1.H264-FGT
Language                                 : English
Service kind                             : Complete Main
Default                                  : Yes
Forced                                   : No

Text
ID                                       : 3
Format                                   : UTF-8
Codec ID                                 : S_TEXT/UTF8
Codec ID/Info                            : UTF-8 Plain Text
Language                                 : English
Default                                  : Yes
Forced                                   : No

Menu
00:00:00.000                             : en:1
00:11:12.088                             : en:2
00:22:43.320                             : en:3
00:31:57.082                             : en:4
00:40:57.455                             : en:5
00:50:49.505                             : en:6
01:01:28.101                             : en:7
01:08:38.281                             : en:8
01:24:51.170                             : en:9
01:40:15.928                             : en:10




下载地址:
点击或右键另存为下载种子
相关电影
电影大百科
最新电影下载
最新剧集下载

如要下载电影资源请用电脑访问,本站所有片源均为高清

如果喜欢请大家支持正版到影院观看或购买正版

星云电影网 www.91ido.com