杀戮比率 Kill.Ratio..720p.WEBRip.x264-STRiFE 1.92GB

2017-06-21 12:05 / 星云电影网 / 动作

电影简介:◎译 名 杀戮比率 ◎片 名 Kill Ratio ◎年 代 2016 ◎产 地 美国 ◎类 别 动作 ◎语 言 英语 ◎上映日期 2016-12-09(美国) ◎IMDb评分 3.9/10 from 420 users ◎IMDb链接 http://www.imdb.com/title/tt5020372/ ◎豆瓣评分 3.3/10 from 17 users ◎豆瓣链接

Kill.Ratio.2016.720p.WEBRip.x264-STRiFE

◎译  名 杀戮比率

◎片  名 Kill Ratio

◎年  代 2016

◎产  地 美国

◎类  别

◎语  言 英语

◎上映日期 2016-12-09(美国)

◎IMDb评分  3.9/10 from 420 users

◎IMDb链接  http://www.imdb.com/title/tt5020372/

◎豆瓣评分 3.3/10 from 17 users

◎豆瓣链接 https://movie.douban.com/subject/26901212/

◎BT之家整理 http://www.btbtt.co 

◎片  长 86分钟

◎导  演 Paul Tanter

◎主  演 汤姆·霍珀 Tom Hopper

      艾米·胡伯曼 Amy Huberman

      Nick Dunning

      Lacy Moore

      Conor Hegarty

      Michelle Lehane

      Brian McGuinness

      Luke Pierucci

      Bryan Harte

      Sarah Reddy

      Ben Hopper

      Aideen Gohery

      Peter Stears

      Shi Jiao Sun

      Maciej Zaleski


◎简  


  An attack on the new President of a fledgling Eastern European democracy pits an American covert operative against the country's ruthless military leader determined to seize control of the government.



Video
ID                                       : 1
Format                                   : AVC
Format/Info                              : Advanced Video Codec
Format profile                           : [email protected]
Format settings, CABAC                   : Yes
Format settings, ReFrames                : 5 frames
Codec ID                                 : V_MPEG4/ISO/AVC
Duration                                 : 1h 26mn
Bit rate                                 : 2 785 Kbps
Width                                    : 1 280 pixels
Height                                   : 690 pixels
Display aspect ratio                     : 1.85:1
Frame rate mode                          : Constant
Frame rate                               : 23.976 (24000/1001) fps
Color space                              : YUV
Chroma subsampling                       : 4:2:0
Bit depth                                : 8 bits
Scan type                                : Progressive
Bits/(Pixel*Frame)                       : 0.132
Stream size                              : 1.68 GiB (88%)
Writing library                          : x264 core 150 r2833 df79067
Encoding settings                        : cabac=1 / ref=5 / deblock=1:-3:-3 / analyse=0x3:0x113 / me=umh / subme=8 / psy=1 / psy_rd=1.00:0.15 / mixed_ref=1 / me_range=16 / chroma_me=1 / trellis=2 / 8x8dct=1 / cqm=0 / deadzone=21,11 / fast_pskip=0 / chroma_qp_offset=-2 / threads=12 / lookahead_threads=2 / sliced_threads=0 / nr=0 / decimate=1 / interlaced=0 / bluray_compat=0 / constrained_intra=0 / bframes=3 / b_pyramid=2 / b_adapt=1 / b_bias=0 / direct=3 / weightb=1 / open_gop=0 / weightp=2 / keyint=240 / keyint_min=23 / scenecut=40 / intra_refresh=0 / rc=crf / mbtree=0 / crf=18.0 / qcomp=0.60 / qpmin=0 / qpmax=69 / qpstep=4 / ip_ratio=1.40 / pb_ratio=1.30 / aq=3:0.80
Language                                 : English
Default                                  : Yes
Forced                                   : No

Audio
ID                                       : 2
Format                                   : AC-3
Format/Info                              : Audio Coding 3
Mode extension                           : CM (complete main)
Format settings, Endianness              : Big
Codec ID                                 : A_AC3
Duration                                 : 1h 26mn
Bit rate mode                            : Constant
Bit rate                                 : 384 Kbps
Channel(s)                               : 6 channels
Channel positions                        : Front: L C R, Side: L R, LFE
Sampling rate                            : 48.0 KHz
Frame rate                               : 31.250 fps (1536 spf)
Compression mode                         : Lossy
Stream size                              : 238 MiB (12%)
Language                                 : English
Default                                  : Yes
Forced                                   : No

Text #1
ID                                       : 3
Format                                   : UTF-8
Codec ID                                 : S_TEXT/UTF8
Codec ID/Info                            : UTF-8 Plain Text
Duration                                 : 56mn 3s
Bit rate                                 : 0 bps
Count of elements                        : 12
Stream size                              : 225 Bytes (0%)
Title                                    : Forced
Language                                 : English
Default                                  : Yes
Forced                                   : Yes

Text #2
ID                                       : 4
Format                                   : UTF-8
Codec ID                                 : S_TEXT/UTF8
Codec ID/Info                            : UTF-8 Plain Text
Duration                                 : 1h 22mn
Bit rate                                 : 54 bps
Count of elements                        : 1065
Stream size                              : 32.7 KiB (0%)
Language                                 : English
Default                                  : No
Forced                                   : No

Text #3
ID                                       : 5
Format                                   : UTF-8
Codec ID                                 : S_TEXT/UTF8
Codec ID/Info                            : UTF-8 Plain Text
Duration                                 : 1h 24mn
Bit rate                                 : 41 bps
Count of elements                        : 928
Stream size                              : 25.8 KiB (0%)
Language                                 : French
Default                                  : No
Forced                                   : No

Text #4
ID                                       : 6
Format                                   : UTF-8
Codec ID                                 : S_TEXT/UTF8
Codec ID/Info                            : UTF-8 Plain Text
Duration                                 : 1h 24mn
Bit rate                                 : 40 bps
Count of elements                        : 928
Stream size                              : 24.7 KiB (0%)
Language                                 : German
Default                                  : No
Forced                                   : No

Text #5
ID                                       : 7
Format                                   : UTF-8
Codec ID                                 : S_TEXT/UTF8
Codec ID/Info                            : UTF-8 Plain Text
Duration                                 : 1h 24mn
Bit rate                                 : 40 bps
Count of elements                        : 956
Stream size                              : 25.3 KiB (0%)
Language                                 : Italian
Default                                  : No
Forced                                   : No

Text #6
ID                                       : 8
Format                                   : UTF-8
Codec ID                                 : S_TEXT/UTF8
Codec ID/Info                            : UTF-8 Plain Text
Duration                                 : 1h 24mn
Bit rate                                 : 39 bps
Count of elements                        : 938
Stream size                              : 24.6 KiB (0%)
Language                                 : Portuguese
Default                                  : No
Forced                                   : No



下载地址:
点击或右键另存为下载种子
相关电影
电影大百科
最新电影下载
最新剧集下载

如要下载电影资源请用电脑访问,本站所有片源均为高清

如果喜欢请大家支持正版到影院观看或购买正版

星云电影网 www.91ido.com