金刚:骷髅岛 Kong.Skull.Island.2017.1080p.DD5.1-FGT 4GB 2017

2017-06-21 12:05 / 星云电影网 / 科幻

电影简介:◎译 名 金刚:骷髅岛 ◎片 名 Kong: Skull Island ◎年 代 2017 ◎产 地 美国 ◎类 别 动作/奇幻/冒险 ◎语 言 英语/越南语/日语 ◎上映日期 2017-02-28(伦敦首映)/2017-03-10(美国)/2017-03-24(中国大陆) ◎IMDb评分 6.9/10 from 99,269 users ◎IMDb链接

Kong.Skull.Island.2017.1080p.WEB-DL.DD5.1.H264-FGT

◎译  名 金刚:骷髅岛

◎片  名 Kong: Skull Island

◎年  代 2017

◎产  地 美国

◎类  别/奇幻/冒险

◎语  言 英语/越南语/日语

◎上映日期 2017-02-28(伦敦首映)/2017-03-10(美国)/2017-03-24(中国大陆)

◎IMDb评分  6.9/10 from 99,269 users

◎IMDb链接  http://www.imdb.com/title/tt3731562/

◎豆瓣评分 6.7/10 from 101,765 users

◎豆瓣链接 https://movie.douban.com/subject/26309788/

◎BT之家整理 http://www.btbtt.co 

◎片  长 119分钟

◎导  演 乔丹·沃格特-罗伯茨 Jordan Vogt-Roberts

◎主  演 汤姆·希德勒斯顿 Tom Hiddleston

      布丽·拉尔森 Brie Larson

      塞缪尔·杰克逊 Samuel L. Jackson

      约翰·古德曼 John Goodman

      景甜 Tian Jing

      约翰·C·赖利 John C. Reilly

      托比·凯贝尔 Toby Kebbell

      科里·霍金斯 Corey Hawkins

      汤姆·威尔金森 Tom Wilkinson

      托马斯·曼 Thomas Mann

      杰森·米切尔 Jason Mitchell

      谢伊·惠格姆 Shea Whigham

      约翰·奥提兹 John Ortiz

      尤金·科德罗 Eugene Cordero


◎简  


  上世纪70年代,一支集结了科考队员、探险家、战地摄影记者、军人的探险队,冒险前往南太平洋上的神秘岛屿——骷髅岛。他们的到来惊扰了岛上之神——史上大金刚。经过一番惨烈的激战之后,探险队员散落在了岛屿各处。此时,队员们才意识到这次探险并不是一次单纯的科考任务,而是去探索怪兽存在的证明。

  在这片与世隔绝、危险密布的丛林,无数怪异的史前生物暗藏其中,时刻威胁着他们的生命。队员们还遇到了神秘的原始部落,金刚的身世和其守护岛屿的原因也被逐渐揭开,原来,恐怖阴森的骷髅岛上还蛰伏着更凶狠残暴的怪兽……


Video
ID                                       : 1
Format                                   : AVC
Format/Info                              : Advanced Video Codec
Format profile                           : [email protected]
Format settings, CABAC                   : Yes
Format settings, ReFrames                : 5 frames
Codec ID                                 : V_MPEG4/ISO/AVC
Duration                                 : 1 h 58 min
Bit rate                                 : 4 441 kb/s
Width                                    : 1 912 pixels
Height                                   : 792 pixels
Display aspect ratio                     : 2.40:1
Frame rate mode                          : Constant
Frame rate                               : 23.976 (24000/1001) FPS
Color space                              : YUV
Chroma subsampling                       : 4:2:0
Bit depth                                : 8 bits
Scan type                                : Progressive
Bits/(Pixel*Frame)                       : 0.122
Stream size                              : 3.67 GiB (90%)
Title                                    : Kong.Skull.Island.2017.1080p.WEB-DL.DD5.1.H264-FGT
Language                                 : English
Default                                  : Yes
Forced                                   : No
Color range                              : Limited
Color primaries                          : BT.709
Transfer characteristics                 : BT.709
Matrix coefficients                      : BT.709

Audio
ID                                       : 2
Format                                   : AC-3
Format/Info                              : Audio Coding 3
Format settings, Endianness              : Big
Codec ID                                 : A_AC3
Duration                                 : 1 h 58 min
Bit rate mode                            : Constant
Bit rate                                 : 384 kb/s
Channel(s)                               : 6 channels
Channel positions                        : Front: L C R, Side: L R, LFE
Sampling rate                            : 48.0 kHz
Frame rate                               : 31.250 FPS (1536 spf)
Bit depth                                : 16 bits
Compression mode                         : Lossy
Delay relative to video                  : -42 ms
Stream size                              : 325 MiB (8%)
Title                                    : Kong.Skull.Island.2017.1080p.WEB-DL.DD5.1.H264-FGT
Language                                 : English
Service kind                             : Complete Main
Default                                  : Yes
Forced                                   : No

Text
ID                                       : 3
Format                                   : UTF-8
Codec ID                                 : S_TEXT/UTF8
Codec ID/Info                            : UTF-8 Plain Text
Language                                 : English
Default                                  : Yes
Forced                                   : No

Menu
00:00:00.000                             : en:1
00:08:54.000                             : en:2
00:19:51.000                             : en:3
00:30:00.000                             : en:4
00:40:00.000                             : en:5
00:50:12.000                             : en:6
01:00:49.000                             : en:7
01:10:29.000                             : en:8
01:18:05.000                             : en:9
01:30:12.000                             : en:10
01:39:09.000                             : en:11
01:47:05.000                             : en:12





下载地址:
点击或右键另存为下载种子
下载地址:
点击或右键另存为下载种子
相关电影
电影大百科
最新电影下载
最新剧集下载

如要下载电影资源请用电脑访问,本站所有片源均为高清

如果喜欢请大家支持正版到影院观看或购买正版

星云电影网 www.91ido.com