宇宙天魔 Lifeforce.1985.DC.1080p.REMUX-HD.MA.5.1-FGT 22GB

2017-06-21 12:06 / 星云电影网 / 科幻

电影简介:◎译 名 宇宙天魔/崩裂的地球/撕裂的地球 ◎片 名 Lifeforce ◎年 代 1985 ◎产 地 英国 ◎类 别 恐怖/科幻/惊悚 ◎语 言 英语 ◎上映日期 1985-06-21 ◎IMDb评分 6.1/10 from 16,628 users ◎IMDb链接 http://www.imdb.com/title/tt0089489/ ◎豆瓣评分 6.2

Lifeforce.1985.Directors.Cut.1080p.BluRay.REMUX.AVC.DTS-HD.MA.5.1-FGT

◎译  名 宇宙天魔/崩裂的地球/撕裂的地球

◎片  名 Lifeforce

◎年  代 1985

◎产  地 英国

◎类  别 恐怖/科幻/惊悚

◎语  言 英语

◎上映日期 1985-06-21

◎IMDb评分  6.1/10 from 16,628 users

◎IMDb链接  http://www.imdb.com/title/tt0089489/

◎豆瓣评分 6.2/10 from 733 users

◎豆瓣链接 https://movie.douban.com/subject/1300305/

◎BT之家整理 http://www.btbtt.co 

◎片  长 116 分钟/USA: 101 分钟(edited version)

◎导  演 托比·霍珀 Tobe Hooper

◎主  演 玛蒂尔达·梅 Mathilda May

      史蒂夫·雷尔斯巴克 Steve Railsback

      彼得·弗斯 Peter Firth

      弗兰克·芬莱 Frank Finlay

      帕特里克·斯图尔特 Patrick Stewart

      Michael Gothard


◎简  


  宇宙飞船邱吉尔号接近哈雷彗星,欲探知其内部构造。船长汤姆?卡尔森(Steve Railsback 饰)带领一组队员走出船舱,发现彗星内部藏有一艘废弃的飞船,内有多具奇怪生物的干尸以及三个沉睡在水晶棺内的人类。为解开其中奥秘,汤姆下令将他们带回飞船。

  三十天后,空无一人的邱吉尔号飞临地球,航天总署派出哥伦比亚号与之对接。宇航员在船中发现焚烧的痕迹和那三个沉睡之人,而机组成员全部死亡。回到地球后,三个人中的女性(Mathilda May 饰)突然苏醒,吸取了年轻守卫的精气。之后守卫变成干尸,并终风化。不久其他两人苏醒,似乎一场灾难正降临地球……


Video
ID                                       : 1
Format                                   : AVC
Format/Info                              : Advanced Video Codec
Format profile                           : [email protected]
Format settings, CABAC                   : Yes
Format settings, ReFrames                : 4 frames
Codec ID                                 : V_MPEG4/ISO/AVC
Duration                                 : 1 h 56 min
Bit rate mode                            : Constant
Nominal bit rate                         : 20.0 Mb/s
Width                                    : 1 920 pixels
Height                                   : 1 080 pixels
Display aspect ratio                     : 16:9
Frame rate mode                          : Constant
Frame rate                               : 23.976 (24000/1001) FPS
Standard                                 : NTSC
Color space                              : YUV
Chroma subsampling                       : 4:2:0
Bit depth                                : 8 bits
Scan type                                : Progressive
Bits/(Pixel*Frame)                       : 0.402
Title                                    : Lifeforce.1985.Directors.Cut.1080p.BluRay.REMUX.AVC.DTS-HD.MA.5.1-FGT
Language                                 : English
Default                                  : No
Forced                                   : No
Color range                              : Limited

Audio #1
ID                                       : 2
Format                                   : DTS
Format/Info                              : Digital Theater Systems
Format profile                           : MA / Core
Mode                                     : 16
Format settings, Endianness              : Big
Codec ID                                 : A_DTS
Duration                                 : 1 h 56 min
Bit rate mode                            : Variable / Constant
Bit rate                                 : Unknown / 1 509 kb/s
Channel(s)                               : 6 channels
Channel positions                        : Front: L C R, Side: L R, LFE
Sampling rate                            : 48.0 kHz
Frame rate                               : 93.750 FPS (512 spf)
Bit depth                                : 24 bits
Compression mode                         : Lossless / Lossy
Title                                    : Lifeforce.1985.Directors.Cut.1080p.BluRay.REMUX.AVC.DTS-HD.MA.5.1-FGT
Language                                 : English
Default                                  : Yes
Forced                                   : No

Audio #2
ID                                       : 3
Format                                   : DTS
Format/Info                              : Digital Theater Systems
Mode                                     : 16
Format settings, Endianness              : Big
Codec ID                                 : A_DTS
Duration                                 : 1 h 56 min
Bit rate mode                            : Constant
Bit rate                                 : 1 509 kb/s
Channel(s)                               : 6 channels
Channel positions                        : Front: L C R, Side: L R, LFE
Sampling rate                            : 48.0 kHz
Frame rate                               : 93.750 FPS (512 spf)
Bit depth                                : 24 bits
Compression mode                         : Lossy
Stream size                              : 1.23 GiB (5%)
Title                                    : Lifeforce.1985.Directors.Cut.1080p.BluRay.REMUX.AVC.DTS-HD.MA.5.1-FGT
Language                                 : English
Default                                  : No
Forced                                   : No

Audio #3
ID                                       : 4
Format                                   : DTS
Format/Info                              : Digital Theater Systems
Format profile                           : MA / Core
Mode                                     : 16
Format settings, Endianness              : Big
Codec ID                                 : A_DTS
Duration                                 : 1 h 56 min
Bit rate mode                            : Variable / Constant
Bit rate                                 : Unknown / 1 509 kb/s
Channel(s)                               : 2 channels
Channel positions                        : Front: L R
Sampling rate                            : 48.0 kHz
Frame rate                               : 93.750 FPS (512 spf)
Bit depth                                : 24 bits
Compression mode                         : Lossless / Lossy
Title                                    : Lifeforce.1985.Directors.Cut.1080p.BluRay.REMUX.AVC.DTS-HD.MA.5.1-FGT
Language                                 : English
Default                                  : No
Forced                                   : No

Audio #4
ID                                       : 5
Format                                   : DTS
Format/Info                              : Digital Theater Systems
Mode                                     : 16
Format settings, Endianness              : Big
Codec ID                                 : A_DTS
Duration                                 : 1 h 56 min
Bit rate mode                            : Constant
Bit rate                                 : 1 509 kb/s
Channel(s)                               : 2 channels
Channel positions                        : Front: L R
Sampling rate                            : 48.0 kHz
Frame rate                               : 93.750 FPS (512 spf)
Bit depth                                : 24 bits
Compression mode                         : Lossy
Stream size                              : 1.23 GiB (5%)
Title                                    : Lifeforce.1985.Directors.Cut.1080p.BluRay.REMUX.AVC.DTS-HD.MA.5.1-FGT
Language                                 : English
Default                                  : No
Forced                                   : No

Audio #5
ID                                       : 6
Format                                   : AC-3
Format/Info                              : Audio Coding 3
Format settings, Endianness              : Big
Codec ID                                 : A_AC3
Duration                                 : 1 h 56 min
Bit rate mode                            : Constant
Bit rate                                 : 384 kb/s
Channel(s)                               : 6 channels
Channel positions                        : Front: L C R, Side: L R, LFE
Sampling rate                            : 48.0 kHz
Frame rate                               : 31.250 FPS (1536 spf)
Bit depth                                : 16 bits
Compression mode                         : Lossy
Stream size                              : 319 MiB (1%)
Title                                    : Lifeforce.1985.Directors.Cut.1080p.BluRay.REMUX.AVC.DTS-HD.MA.5.1-FGT
Language                                 : Spanish
Service kind                             : Complete Main
Default                                  : No
Forced                                   : No

Text #1
ID                                       : 7
Format                                   : PGS
Muxing mode                              : zlib
Codec ID                                 : S_HDMV/PGS
Codec ID/Info                            : Picture based subtitle format used on BDs/HD-DVDs
Title                                    : English-PGS
Language                                 : English
Default                                  : Yes
Forced                                   : No

Text #2
ID                                       : 8
Format                                   : PGS
Muxing mode                              : zlib
Codec ID                                 : S_HDMV/PGS
Codec ID/Info                            : Picture based subtitle format used on BDs/HD-DVDs
Title                                    : Spanish-PGS
Language                                 : Spanish
Default                                  : No
Forced                                   : No

Text #3
ID                                       : 9
Format                                   : PGS
Muxing mode                              : zlib
Codec ID                                 : S_HDMV/PGS
Codec ID/Info                            : Picture based subtitle format used on BDs/HD-DVDs
Title                                    : Portuguese-PGS
Language                                 : Portuguese
Default                                  : No
Forced                                   : No

Menu
00:00:00.000                             : en:Chapter 01
00:17:47.316                             : en:Chapter 02
00:46:32.873                             : en:Chapter 03
01:08:32.650                             : en:Chapter 04
01:26:35.106                             : en:Chapter 05
01:43:18.609                             : en:Chapter 06




下载地址:
点击或右键另存为下载种子
相关电影
电影大百科
最新电影下载
最新剧集下载

如要下载电影资源请用电脑访问,本站所有片源均为高清

如果喜欢请大家支持正版到影院观看或购买正版

星云电影网 www.91ido.com