雷文斯伍德 Ravenswood.2017.1080p.DD5.1-FGT 3.08GB 2017

2017-06-21 12:05 / 星云电影网 / 恐怖

电影简介:◎译 名 雷文斯伍德 ◎片 名 Ravenswood ◎年 代 2017 ◎产 地 美国 ◎类 别 惊悚/恐怖 ◎语 言 英语 ◎上映日期 2017-03-11 ◎IMDb评分 4.4/10 from 29 users ◎IMDb链接 http://www.imdb.com/title/tt5194048/ ◎BT之家整理http://www.btbtt.co ◎片 长 90

Ravenswood.2017.1080p.WEB-DL.DD5.1.H264-FGT

◎译  名 雷文斯伍德

◎片  名 Ravenswood

◎年  代 2017

◎产  地 美国

◎类  别 惊悚/恐怖

◎语  言 英语

◎上映日期 2017-03-11

◎IMDb评分  4.4/10 from 29 users

◎IMDb链接  http://www.imdb.com/title/tt5194048/

◎BT之家整理 http://www.btbtt.co 

◎片  长 90分钟

◎导  演 Jon Cohen

◎主  演 Madeline Marie Dona

      Adam Horner

      Shane Savage

      Isabel Dickson

      Jock Campbell

      Ashley Fitzgerald

      Jonathan Lane

      Josie Waller

      Kristy Wright

      Celyren Phipps

      Kathy Luu

      Larissa Carnegie


◎简  


  When 4 American tourists - Sofia, Carl, Belle and Michael - go on a ghost tour, they get much more than they bargained for, when the ghosts of an evil Doctor and his last patient victim trap them in the old abandoned psychiatric ward.




Video
ID                                       : 1
Format                                   : AVC
Format/Info                              : Advanced Video Codec
Format profile                           : [email protected]
Format settings, CABAC                   : Yes
Format settings, ReFrames                : 5 frames
Codec ID                                 : V_MPEG4/ISO/AVC
Duration                                 : 1 h 28 min
Bit rate                                 : 4 522 kb/s
Width                                    : 1 920 pixels
Height                                   : 808 pixels
Display aspect ratio                     : 2.40:1
Frame rate mode                          : Constant
Frame rate                               : 25.000 FPS
Color space                              : YUV
Chroma subsampling                       : 4:2:0
Bit depth                                : 8 bits
Scan type                                : Progressive
Bits/(Pixel*Frame)                       : 0.117
Stream size                              : 2.78 GiB (90%)
Title                                    : Ravenswood.2017.1080p.WEB-DL.DD5.1.H264-FGT
Language                                 : English
Default                                  : Yes
Forced                                   : No
Color range                              : Limited
Color primaries                          : BT.709
Transfer characteristics                 : BT.709
Matrix coefficients                      : BT.709

Audio
ID                                       : 2
Format                                   : AC-3
Format/Info                              : Audio Coding 3
Format settings, Endianness              : Big
Codec ID                                 : A_AC3
Duration                                 : 1 h 28 min
Bit rate mode                            : Constant
Bit rate                                 : 384 kb/s
Channel(s)                               : 6 channels
Channel positions                        : Front: L C R, Side: L R, LFE
Sampling rate                            : 48.0 kHz
Frame rate                               : 31.250 FPS (1536 spf)
Bit depth                                : 16 bits
Compression mode                         : Lossy
Delay relative to video                  : -40 ms
Stream size                              : 242 MiB (8%)
Title                                    : Ravenswood.2017.1080p.WEB-DL.DD5.1.H264-FGT
Language                                 : English
Service kind                             : Complete Main
Default                                  : Yes
Forced                                   : No

Text
ID                                       : 3
Format                                   : UTF-8
Codec ID                                 : S_TEXT/UTF8
Codec ID/Info                            : UTF-8 Plain Text
Language                                 : English
Default                                  : Yes
Forced                                   : No

Menu
00:00:00.000                             : en:1
00:08:04.080                             : en:2
00:18:27.440                             : en:3
00:28:57.000                             : en:4
00:40:23.520                             : en:5
00:50:34.400                             : en:6
01:00:41.640                             : en:7
01:09:56.120                             : en:8
01:26:14.760                             : en:9




下载地址:
点击或右键另存为下载种子
相关电影
电影大百科
最新电影下载
最新剧集下载

如要下载电影资源请用电脑访问,本站所有片源均为高清

如果喜欢请大家支持正版到影院观看或购买正版

星云电影网 www.91ido.com