分秒间离 Seconds.Apart..1080p-7SinS 6.56GB

2017-06-21 12:05 / 星云电影网 / 恐怖

电影简介:◎译 名 分秒间离 ◎片 名 Seconds Apart ◎年 代 2011 ◎产 地 美国 ◎类 别 惊悚 ◎语 言 英语 ◎上映日期 2011-07-07(俄罗斯) ◎IMDb评分 5.7/10 from 5,558 users ◎IMDb链接 http://www.imdb.com/title/tt1601475/ ◎豆瓣评分 6.5/10 from 2,186 users

Seconds.Apart.2011.1080p.BluRay.X264-7SinS

◎译  名 分秒间离

◎片  名 Seconds Apart

◎年  代 2011

◎产  地 美国

◎类  别 惊悚

◎语  言 英语

◎上映日期 2011-07-07(俄罗斯)

◎IMDb评分  5.7/10 from 5,558 users

◎IMDb链接  http://www.imdb.com/title/tt1601475/

◎豆瓣评分 6.5/10 from 2,186 users

◎豆瓣链接 https://movie.douban.com/subject/5156263/

◎BT之家整理 http://www.btbtt.co 

◎片  长 78分钟

◎导  演 Antonio Negret

◎主  演 奥兰多·琼斯 Orlando Jones

      Edmund Entin

      Gary Entin


◎简  


  在一次寻常的大学生家庭派对上,荷尔蒙过剩的青年们尽情玩耍。然而当晚却发生了一起血腥惨剧,数名校队运动员在地下室玩俄罗斯轮盘赌,终导致4人身亡。在此之后,兰普金警探(Orlando Jones 饰)受命调查此事,并走访了死亡大学生所在的教会学校。通过对死者朋友们的盘查,他将盘问对象所定在乔纳(Edund Entin 饰)和赛斯(Gary Entin 饰)身上。

  乔纳和赛斯是一对俊美的双胞胎,他们有着极高的智商,却为周围的同学所不容,共同视他们二人为怪胎。他们虽然经常拿着摄像机在学校走来走去,不过早已被他人当作空气。随着兰普金调查的深入,这对神秘兄弟的关系也变得越来越微妙……



Video
ID                                       : 1
Format                                   : AVC
Format/Info                              : Advanced Video Codec
Format profile                           : [email protected]
Format settings, CABAC                   : Yes
Format settings, ReFrames                : 4 frames
Codec ID                                 : V_MPEG4/ISO/AVC
Duration                                 : 1 h 25 min
Bit rate                                 : 9 525 kb/s
Width                                    : 1 920 pixels
Height                                   : 1 080 pixels
Display aspect ratio                     : 16:9
Frame rate mode                          : Constant
Frame rate                               : 25.000 FPS
Color space                              : YUV
Chroma subsampling                       : 4:2:0
Bit depth                                : 8 bits
Scan type                                : Progressive
Bits/(Pixel*Frame)                       : 0.184
Stream size                              : 5.53 GiB (84%)
Writing library                          : x264 core 115 r1995 c1e60b9
Encoding settings                        : cabac=1 / ref=4 / deblock=1:0:0 / analyse=0x3:0x133 / me=umh / subme=7 / psy=1 / psy_rd=1.00:0.00 / mixed_ref=1 / me_range=16 / chroma_me=1 / trellis=1 / 8x8dct=1 / cqm=0 / deadzone=21,11 / fast_pskip=0 / chroma_qp_offset=-2 / threads=12 / sliced_threads=0 / nr=0 / decimate=1 / interlaced=0 / bluray_compat=0 / constrained_intra=0 / bframes=3 / b_pyramid=2 / b_adapt=1 / b_bias=0 / direct=1 / weightb=1 / open_gop=0 / weightp=2 / keyint=250 / keyint_min=25 / scenecut=40 / intra_refresh=0 / rc_lookahead=40 / rc=2pass / mbtree=1 / bitrate=9525 / ratetol=1.0 / qcomp=0.60 / qpmin=0 / qpmax=69 / qpstep=4 / cplxblur=20.0 / qblur=0.5 / ip_ratio=1.40 / aq=1:1.00
Language                                 : English
Default                                  : Yes
Forced                                   : No

Audio
ID                                       : 2
Format                                   : DTS
Format/Info                              : Digital Theater Systems
Mode                                     : 16
Format settings, Endianness              : Big
Codec ID                                 : A_DTS
Duration                                 : 1 h 25 min
Bit rate mode                            : Constant
Bit rate                                 : 1 509 kb/s
Channel(s)                               : 6 channels
Channel positions                        : Front: L C R, Side: L R, LFE
Sampling rate                            : 48.0 kHz
Frame rate                               : 93.750 FPS (512 spf)
Bit depth                                : 24 bits
Compression mode                         : Lossy
Stream size                              : 919 MiB (14%)
Language                                 : English
Default                                  : Yes
Forced                                   : No




下载地址:
点击或右键另存为下载种子
相关电影
电影大百科
最新电影下载
最新剧集下载

如要下载电影资源请用电脑访问,本站所有片源均为高清

如果喜欢请大家支持正版到影院观看或购买正版

星云电影网 www.91ido.com