Four.Skulls.of.Jonathan.Drake.1959.1080p.x264-FGT 6.3GB

2017-06-21 12:05 / 星云电影网 / 恐怖

电影简介:◎译 名 ◎片 名 The Four Skulls Of Jonathan Drake ◎年 代 1959 ◎产 地 美国 ◎类 别 恐怖/悬疑 ◎语 言 英语 ◎上映日期 1960-01-03 ◎IMDb评分 5.9/10 from 589 users ◎IMDb链接 http://www.imdb.com/title/tt0052820/ ◎BT之家整理http://www.btbtt.

Four.Skulls.of.Jonathan.Drake.1959.1080p.BluRay.x264.DTS-FGT

◎译  名 

◎片  名 The Four Skulls Of Jonathan Drake

◎年  代 1959

◎产  地 美国

◎类  别 恐怖/悬疑

◎语  言 英语

◎上映日期 1960-01-03

◎IMDb评分  5.9/10 from 589 users

◎IMDb链接  http://www.imdb.com/title/tt0052820/

◎BT之家整理 http://www.btbtt.co 

◎片  长 70 分钟


◎简  


  Jonathan Drake| while attending his brother's funeral| is shocked to find the head of the deceased is missing. When his brother's skull shows up later in a lockedcabinet| Drake realizes an ancient curse placed upon his grandfather by a tribe of South American Jivaro Indians is still in effect and that he himself is theprobable next victim. That night he is awakened by the approach of an Indian| his lips sewed together with string| and wielding a curare-tipped bamboo knife.



Video
ID                                       : 1
Format                                   : AVC
Format/Info                              : Advanced Video Codec
Format profile                           : [email protected]
Format settings, CABAC                   : Yes
Format settings, ReFrames                : 4 frames
Codec ID                                 : V_MPEG4/ISO/AVC
Duration                                 : 1 h 9 min
Bit rate                                 : 11.5 Mb/s
Width                                    : 1 920 pixels
Height                                   : 1 036 pixels
Display aspect ratio                     : 1.85:1
Frame rate mode                          : Constant
Frame rate                               : 23.976 (24000/1001) FPS
Color space                              : YUV
Chroma subsampling                       : 4:2:0
Bit depth                                : 8 bits
Scan type                                : Progressive
Bits/(Pixel*Frame)                       : 0.241
Stream size                              : 5.49 GiB (86%)
Writing library                          : x264 core 148 r2694 3b70645
Encoding settings                        : cabac=1 / ref=4 / deblock=1:-2:-2 / analyse=0x3:0x113 / me=umh / subme=7 / psy=1 / psy_rd=1.00:0.15 / mixed_ref=1 / me_range=16 / chroma_me=1 / trellis=1 / 8x8dct=1 / cqm=0 / deadzone=21,11 / fast_pskip=1 / chroma_qp_offset=-3 / threads=24 / lookahead_threads=3 / sliced_threads=0 / nr=0 / decimate=1 / interlaced=0 / bluray_compat=0 / constrained_intra=0 / bframes=3 / b_pyramid=2 / b_adapt=2 / b_bias=0 / direct=3 / weightb=1 / open_gop=0 / weightp=2 / keyint=250 / keyint_min=25 / scenecut=40 / intra_refresh=0 / rc_lookahead=50 / rc=abr / mbtree=1 / bitrate=11500 / ratetol=1.0 / qcomp=0.60 / qpmin=0 / qpmax=69 / qpstep=4 / vbv_maxrate=31250 / vbv_bufsize=31250 / nal_hrd=none / filler=0 / ip_ratio=1.40 / aq=1:1.00
Language                                 : English
Default                                  : Yes
Forced                                   : No

Audio
ID                                       : 2
Format                                   : DTS
Format/Info                              : Digital Theater Systems
Mode                                     : 16
Format settings, Endianness              : Big
Codec ID                                 : A_DTS
Duration                                 : 1 h 9 min
Bit rate mode                            : Constant
Bit rate                                 : 1 509 kb/s
Channel(s)                               : 2 channels
Channel positions                        : Front: L R
Sampling rate                            : 48.0 kHz
Frame rate                               : 93.750 FPS (512 spf)
Bit depth                                : 24 bits
Compression mode                         : Lossy
Stream size                              : 755 MiB (12%)
Language                                 : English
Default                                  : Yes
Forced                                   : No

Text
ID                                       : 3
Format                                   : UTF-8
Codec ID                                 : S_TEXT/UTF8
Codec ID/Info                            : UTF-8 Plain Text
Language                                 : English
Default                                  : Yes
Forced                                   : No

Menu
00:00:00.000                             : en:Chapter 01
00:05:16.566                             : en:Chapter 02
00:12:31.459                             : en:Chapter 03
00:17:28.130                             : en:Chapter 04
00:22:56.958                             : en:Chapter 05
00:29:23.470                             : en:Chapter 06
00:36:12.920                             : en:Chapter 07
00:42:18.577                             : en:Chapter 08
00:46:23.113                             : en:Chapter 09
00:51:30.712                             : en:Chapter 10
00:58:44.312                             : en:Chapter 11
01:04:33.286                             : en:Chapter 12



下载地址:
点击或右键另存为下载种子
相关电影
电影大百科
最新电影下载
最新剧集下载

如要下载电影资源请用电脑访问,本站所有片源均为高清

如果喜欢请大家支持正版到影院观看或购买正版

星云电影网 www.91ido.com