Cut-Print..720p.WEBRip.DD2.0.x264-monkee 2.44GB

2017-06-21 12:05 / 星云电影网 / 恐怖

电影简介:◎译 名 ◎片 名 Cut, Print ◎年 代 2012 ◎产 地 美国 ◎类 别 恐怖/惊悚 ◎语 言 英语 ◎上映日期 2008 ◎IMDb评分 5.9/10 from 91 users ◎IMDb链接 http://www.imdb.com/title/tt1106884/ ◎BT之家整理http://www.btbtt.co ◎片 长 92分钟 ◎导 演 Nath

Cut-Print.2012.720p.WEBRip.DD2.0.x264-monkee

◎译  名 

◎片  名 Cut, Print

◎年  代 2012

◎产  地 美国

◎类  别 恐怖/惊悚

◎语  言 英语

◎上映日期 2008

◎IMDb评分  5.9/10 from 91 users

◎IMDb链接  http://www.imdb.com/title/tt1106884/

◎BT之家整理 http://www.btbtt.co 

◎片  长 92分钟

◎导  演 Nathaniel Nose

◎主  演 Ele Bardha

      Angela Chetcuti

      Chelsey Fatula

      Ken Foree

      Tamara Frapasella

      Randall Godwin


◎简  


  A group of ambitious filmmakers set out to create the world's first reality horror movie. Their plan was simple; they'd offer an active serial killer complete anonymity and a worldwide platform from which to display his work in exchange for genuine footage of his grisly crimes. What ensues is a hellish game of cat and mouse as a cryptic filmmaker, known only as The Maestro, comes out from hiding in search of his "perfect shot".


Video
ID                                       : 1
Format                                   : AVC
Format/Info                              : Advanced Video Codec
Format profile                           : [email protected]
Format settings, CABAC                   : Yes
Format settings, ReFrames                : 5 frames
Codec ID                                 : V_MPEG4/ISO/AVC
Duration                                 : 1 h 32 min
Bit rate mode                            : Variable
Bit rate                                 : 3 479 kb/s
Maximum bit rate                         : 4 500 kb/s
Width                                    : 1 280 pixels
Height                                   : 720 pixels
Display aspect ratio                     : 16:9
Frame rate mode                          : Constant
Frame rate                               : 23.976 (24000/1001) FPS
Color space                              : YUV
Chroma subsampling                       : 4:2:0
Bit depth                                : 8 bits
Scan type                                : Progressive
Bits/(Pixel*Frame)                       : 0.157
Stream size                              : 2.24 GiB (92%)
Writing library                          : x264 core 148 r2623 d5b2374
Encoding settings                        : cabac=1 / ref=5 / deblock=1:-1:-1 / analyse=0x3:0x133 / me=umh / subme=9 / psy=1 / psy_rd=1.00:0.15 / mixed_ref=1 / me_range=24 / chroma_me=1 / trellis=2 / 8x8dct=1 / cqm=0 / deadzone=21,11 / fast_pskip=1 / chroma_qp_offset=-3 / threads=22 / lookahead_threads=3 / sliced_threads=0 / nr=150 / decimate=1 / interlaced=0 / bluray_compat=0 / constrained_intra=0 / bframes=8 / b_pyramid=2 / b_adapt=2 / b_bias=0 / direct=3 / weightb=1 / open_gop=0 / weightp=2 / keyint=120 / keyint_min=61 / scenecut=0 / intra_refresh=0 / rc_lookahead=120 / rc=crf / mbtree=1 / crf=18.0 / qcomp=0.60 / qpmin=0 / qpmax=69 / qpstep=4 / vbv_maxrate=4500 / vbv_bufsize=17500 / crf_max=0.0 / nal_hrd=vbr / filler=0 / ip_ratio=1.40 / aq=3:1.00
Default                                  : Yes
Forced                                   : No
Color range                              : Limited
Color primaries                          : BT.709
Transfer characteristics                 : BT.709
Matrix coefficients                      : BT.709
Statistics Tags Issue                    : mkvmerge v12.0.0 (\'Trust / Lust\') 64bit 2017-06-19 18:35:58 / mkvmerge v12.0.0 (\'Trust / Lust\') 64bit 
FromStats_BitRate                        : 3552478
FromStats_Duration                       : 01:32:21.745000000
FromStats_FrameCount                     : 132869
FromStats_StreamSize                     : 2460866177

Audio
ID                                       : 2
Format                                   : E-AC-3
Format/Info                              : Enhanced Audio Coding 3
Format settings, Endianness              : Big
Codec ID                                 : A_EAC3
Duration                                 : 1 h 32 min
Bit rate mode                            : Constant
Bit rate                                 : 224 kb/s
Channel(s)                               : 2 channels
Channel positions                        : Front: L R
Sampling rate                            : 48.0 kHz
Frame rate                               : 187.500 FPS (256 spf)
Compression mode                         : Lossy
Stream size                              : 148 MiB (6%)
Language                                 : English
Service kind                             : Complete Main
Default                                  : Yes
Forced                                   : No
Statistics Tags Issue                    : mkvmerge v12.0.0 (\'Trust / Lust\') 64bit 2017-06-19 18:35:58 / mkvmerge v12.0.0 (\'Trust / Lust\') 64bit 
FromStats_BitRate                        : 224000
FromStats_Duration                       : 01:32:21.696000000
FromStats_FrameCount                     : 173178
FromStats_StreamSize                     : 155167488

Text
ID                                       : 3
Format                                   : UTF-8
Codec ID                                 : S_TEXT/UTF8
Codec ID/Info                            : UTF-8 Plain Text
Language                                 : English
Default                                  : No
Forced                                   : No
Statistics Tags Issue                    : mkvmerge v12.0.0 (\'Trust / Lust\') 64bit 2017-06-19 18:35:58 / mkvmerge v12.0.0 (\'Trust / Lust\') 64bit 
FromStats_BitRate                        : 83
FromStats_Duration                       : 01:32:15.497000000
FromStats_FrameCount                     : 2086
FromStats_StreamSize                     : 57457




下载地址:
点击或右键另存为下载种子
相关电影
电影大百科
最新电影下载
最新剧集下载

如要下载电影资源请用电脑访问,本站所有片源均为高清

如果喜欢请大家支持正版到影院观看或购买正版

星云电影网 www.91ido.com