下周二见 See.You.Next.Tuesday..1080p.WEBRip.DD2.0.x264-monkee 7.

2017-06-21 12:07 / 星云电影网 / 喜剧

电影简介:◎译 名 下周二见 ◎片 名 See You Next Tuesday ◎年 代 2013 ◎产 地 美国 ◎类 别 剧情/喜剧 ◎语 言 英语 ◎IMDb评分 6.7/10 from 116 users ◎IMDb链接 http://www.imdb.com/title/tt2520394/ ◎BT之家整理http://www.btbtt.co ◎片 长 82分钟 ◎导 演

See.You.Next.Tuesday.2013.1080p.WEBRip.DD2.0.x264-monkee

◎译  名 下周二见 

◎片  名 See You Next Tuesday

◎年  代 2013

◎产  地 美国

◎类  别 剧情/喜剧

◎语  言 英语

◎IMDb评分  6.7/10 from 116 users

◎IMDb链接  http://www.imdb.com/title/tt2520394/

◎BT之家整理 http://www.btbtt.co 

◎片  长 82分钟

◎导  演 Drew Tobia

◎主  演 Eleanore Pienta

      Molly Plunk

      Keisha Zollar

      达娜·埃斯科尔森 Dana Eskelson


◎简  


  Mona (Eleanore Pienta) is a mentally unbalanced and very pregnant young woman in a hideous orange coat. Without any friends to speak of and alienated from her hoochie mama coworkers at a crummy Brooklyn supermarket, Mona maintains a strangely close relationship with her campy, recovering alcoholic mother May (Dana Eskelson). Mona's sister Jordan (Molly Plunk) is an unemployable party girl, estranged from May and making life hell for her increasingly fed up girlfriend Sylve (Keisha Zollar). In the final days of her pregnancy, Mona draws her mother, sister, and anybody who happens to get caught in her wake into her hectic life as she drifts further from reality.


◎获奖情况


  第14届全州国际电影节  (2013)

  国际电影竞赛单元 评审团大奖(提名) Drew Tobia


Video
ID                                       : 1
Format                                   : AVC
Format/Info                              : Advanced Video Codec
Format profile                           : [email protected]
Format settings, CABAC                   : Yes
Format settings, ReFrames                : 4 frames
Codec ID                                 : V_MPEG4/ISO/AVC
Duration                                 : 1 h 21 min
Bit rate mode                            : Variable
Bit rate                                 : 13.2 Mb/s
Maximum bit rate                         : 15.0 Mb/s
Width                                    : 1 920 pixels
Height                                   : 1 080 pixels
Display aspect ratio                     : 16:9
Frame rate mode                          : Constant
Frame rate                               : 23.976 (24000/1001) FPS
Color space                              : YUV
Chroma subsampling                       : 4:2:0
Bit depth                                : 8 bits
Scan type                                : Progressive
Bits/(Pixel*Frame)                       : 0.265
Stream size                              : 7.51 GiB (96%)
Writing library                          : x264 core 148 r2623 d5b2374
Encoding settings                        : cabac=1 / ref=4 / deblock=1:-1:-1 / analyse=0x3:0x133 / me=umh / subme=9 / psy=1 / psy_rd=1.00:0.15 / mixed_ref=1 / me_range=24 / chroma_me=1 / trellis=2 / 8x8dct=1 / cqm=0 / deadzone=21,11 / fast_pskip=1 / chroma_qp_offset=-3 / threads=34 / lookahead_threads=5 / sliced_threads=0 / nr=150 / decimate=1 / interlaced=0 / bluray_compat=0 / constrained_intra=0 / bframes=8 / b_pyramid=2 / b_adapt=2 / b_bias=0 / direct=3 / weightb=1 / open_gop=0 / weightp=2 / keyint=120 / keyint_min=61 / scenecut=0 / intra_refresh=0 / rc_lookahead=120 / rc=crf / mbtree=1 / crf=18.0 / qcomp=0.60 / qpmin=0 / qpmax=69 / qpstep=4 / vbv_maxrate=15000 / vbv_bufsize=31250 / crf_max=0.0 / nal_hrd=vbr / filler=0 / ip_ratio=1.40 / aq=3:1.00
Default                                  : Yes
Forced                                   : No
Color range                              : Limited
Color primaries                          : BT.709
Transfer characteristics                 : BT.709
Matrix coefficients                      : BT.709
Statistics Tags Issue                    : mkvmerge v12.0.0 (\'Trust / Lust\') 64bit 2017-06-19 20:50:48 / mkvmerge v12.0.0 (\'Trust / Lust\') 64bit 
FromStats_BitRate                        : 13443409
FromStats_Duration                       : 01:21:33.973000000
FromStats_FrameCount                     : 117338
FromStats_StreamSize                     : 8223960149

Audio
ID                                       : 2
Format                                   : E-AC-3
Format/Info                              : Enhanced Audio Coding 3
Format settings, Endianness              : Big
Codec ID                                 : A_EAC3
Duration                                 : 1 h 21 min
Bit rate mode                            : Constant
Bit rate                                 : 224 kb/s
Channel(s)                               : 2 channels
Channel positions                        : Front: L R
Sampling rate                            : 48.0 kHz
Frame rate                               : 187.500 FPS (256 spf)
Compression mode                         : Lossy
Stream size                              : 131 MiB (2%)
Language                                 : English
Service kind                             : Complete Main
Default                                  : Yes
Forced                                   : No
Statistics Tags Issue                    : mkvmerge v12.0.0 (\'Trust / Lust\') 64bit 2017-06-19 20:50:48 / mkvmerge v12.0.0 (\'Trust / Lust\') 64bit 
FromStats_BitRate                        : 224000
FromStats_Duration                       : 01:21:33.920000000
FromStats_FrameCount                     : 152935
FromStats_StreamSize                     : 137029760

Text
ID                                       : 3
Format                                   : UTF-8
Codec ID                                 : S_TEXT/UTF8
Codec ID/Info                            : UTF-8 Plain Text
Language                                 : English
Default                                  : No
Forced                                   : No
Statistics Tags Issue                    : mkvmerge v12.0.0 (\'Trust / Lust\') 64bit 2017-06-19 20:50:48 / mkvmerge v12.0.0 (\'Trust / Lust\') 64bit 
FromStats_BitRate                        : 65
FromStats_Duration                       : 01:18:42.652000000
FromStats_FrameCount                     : 1315
FromStats_StreamSize                     : 38636





下载地址:
点击或右键另存为下载种子
相关电影
电影大百科
最新电影下载
最新剧集下载

如要下载电影资源请用电脑访问,本站所有片源均为高清

如果喜欢请大家支持正版到影院观看或购买正版

星云电影网 www.91ido.com