走过冬季 Winter.Passing.2005.1080p.WEBRip.DD2.0.x264-monkee 4.11

2017-06-21 12:07 / 星云电影网 / 喜剧

电影简介:◎译 名 走过冬季 ◎片 名 Winter Passing ◎年 代 2005 ◎产 地 美国 ◎类 别 喜剧/剧情 ◎语 言 英语 ◎上映日期 2005-09-10(多伦多电影节) ◎IMDb评分 6.4/10 from 7,458 users ◎IMDb链接 http://www.imdb.com/title/tt0380817/ ◎豆瓣评分 7.6/10 from

Winter.Passing.2005.1080p.WEBRip.DD2.0.x264-monkee

◎译  名 走过冬季

◎片  名 Winter Passing

◎年  代 2005

◎产  地 美国

◎类  别 喜剧/剧情

◎语  言 英语

◎上映日期 2005-09-10(多伦多电影节)

◎IMDb评分  6.4/10 from 7,458 users

◎IMDb链接  http://www.imdb.com/title/tt0380817/

◎豆瓣评分 7.6/10 from 1,346 users

◎豆瓣链接 https://movie.douban.com/subject/1758389/

◎BT之家整理 http://www.btbtt.co 

◎片  长 98分钟

◎导  演 亚当·拉普 Adam Rapp

◎主  演 佐伊·丹斯切尔 Zooey Deschanel

      Darrell Larson

      约翰·贝德福德·劳埃德 John Bedford Lloyd

      迪尔德丽·奥康奈尔 Deirdre O'Connell


◎简  


  美丽女孩瑞茜·霍尔登(佐伊·丹斯切尔 Zooey Deschanel 饰)心中怀有表演的梦想,为此她从密歇根州的老家来到大都会纽约,靠着自己的勤奋取得了些许成就。她的父亲丹(埃德·哈里斯 Ed Harries 饰)曾是一名知名作家,却因爱妻之死而将近二十年再未执笔。瑞茜和父亲的关系颇为冷淡,父女二人分别多年几无联系。某晚,演出完毕的瑞茜迎来一位不速之客,她叫劳瑞·兰斯基(艾米·麦迪甘 Amy Madigen 饰),是一个以编书为生的女人。劳瑞对丹当年写给爱妻的情书极为感兴趣,她希望瑞茜能够提供这些情书。

  虽然实现了演员的梦想,但是瑞茜仍为生计所迫。在丰厚报酬的诱惑下,她决定返回阔别七年之久的老家,却未曾想到这是一次改编人生的旅程……


Video
ID                                       : 1
Format                                   : AVC
Format/Info                              : Advanced Video Codec
Format profile                           : [email protected]
Format settings, CABAC                   : Yes
Format settings, ReFrames                : 4 frames
Codec ID                                 : V_MPEG4/ISO/AVC
Duration                                 : 1 h 39 min
Bit rate                                 : 5 573 kb/s
Width                                    : 1 920 pixels
Height                                   : 1 080 pixels
Display aspect ratio                     : 16:9
Frame rate mode                          : Constant
Frame rate                               : 23.976 (24000/1001) FPS
Color space                              : YUV
Chroma subsampling                       : 4:2:0
Bit depth                                : 8 bits
Scan type                                : Progressive
Bits/(Pixel*Frame)                       : 0.112
Stream size                              : 3.87 GiB (94%)
Default                                  : Yes
Forced                                   : No
Statistics Tags Issue                    : mkvmerge v12.0.0 (\'Trust / Lust\') 64bit 2017-06-18 05:42:30 / mkvmerge v12.0.0 (\'Trust / Lust\') 64bit 
FromStats_BitRate                        : 5688519
FromStats_Duration                       : 01:39:22.958000000
FromStats_FrameCount                     : 142968
FromStats_StreamSize                     : 4240050127

Audio
ID                                       : 2
Format                                   : E-AC-3
Format/Info                              : Enhanced Audio Coding 3
Format settings, Endianness              : Big
Codec ID                                 : A_EAC3
Duration                                 : 1 h 39 min
Bit rate mode                            : Constant
Bit rate                                 : 224 kb/s
Channel(s)                               : 2 channels
Channel positions                        : Front: L R
Sampling rate                            : 48.0 kHz
Frame rate                               : 187.500 FPS (256 spf)
Compression mode                         : Lossy
Delay relative to video                  : -83 ms
Stream size                              : 159 MiB (4%)
Language                                 : English
Service kind                             : Complete Main
Default                                  : Yes
Forced                                   : No
Statistics Tags Issue                    : mkvmerge v12.0.0 (\'Trust / Lust\') 64bit 2017-06-18 05:42:30 / mkvmerge v12.0.0 (\'Trust / Lust\') 64bit 
FromStats_BitRate                        : 224000
FromStats_Duration                       : 01:39:23.008000000
FromStats_FrameCount                     : 186344
FromStats_StreamSize                     : 166964224

Text
ID                                       : 3
Format                                   : UTF-8
Codec ID                                 : S_TEXT/UTF8
Codec ID/Info                            : UTF-8 Plain Text
Language                                 : English
Default                                  : No
Forced                                   : No
Statistics Tags Issue                    : mkvmerge v12.0.0 (\'Trust / Lust\') 64bit 2017-06-18 05:42:30 / mkvmerge v12.0.0 (\'Trust / Lust\') 64bit 
FromStats_BitRate                        : 47
FromStats_Duration                       : 01:39:09.287000000
FromStats_FrameCount                     : 1214
FromStats_StreamSize                     : 35554




下载地址:
点击或右键另存为下载种子
相关电影
电影大百科
最新电影下载
最新剧集下载

如要下载电影资源请用电脑访问,本站所有片源均为高清

如果喜欢请大家支持正版到影院观看或购买正版

星云电影网 www.91ido.com