最明亮的星 Brightest.Star..1080p.WEBRip.DD5.1.x264-monkee 5.56GB

2017-06-21 12:08 / 星云电影网 / 喜剧

电影简介:◎译 名 最明亮的星 ◎片 名 Brightest Star ◎年 代 2013 ◎产 地 美国 ◎类 别 剧情/喜剧/爱情 ◎语 言 英语 ◎上映日期 2013-10-26(奥斯汀电影节)/2014-01-31(美国) ◎IMDb评分 5.1/10 from 887 users ◎IMDb链接 http://www.imdb.com/title/tt1877688/

Brightest.Star.2013.1080p.WEBRip.DD5.1.x264-monkee

◎译  名 明亮的星

◎片  名 Brightest Star

◎年  代 2013

◎产  地 美国

◎类  别 剧情/喜剧/爱情

◎语  言 英语

◎上映日期 2013-10-26(奥斯汀电影节)/2014-01-31(美国)

◎IMDb评分  5.1/10 from 887 users

◎IMDb链接  http://www.imdb.com/title/tt1877688/

◎豆瓣评分 6.1/10 from 41 users

◎豆瓣链接 https://movie.douban.com/subject/6435913/

◎BT之家整理 http://www.btbtt.co 

◎片  长 80分钟

◎导  演 玛吉·基莉  Maggie Kiley

◎主  演 杰西卡·斯佐尔 Jessica Szohr

      艾莉森·珍妮 Allison Janney

      罗丝·麦克莱弗 Rose McIver

      克拉克·格雷格 Clark Gregg

      克里斯·劳威尔 Chris Lowell

      Peter Jacobson

      艾维·约斯特 Elvy Yost

      艾米丽·派克 Emily Peck

      Peter Maloney

      Sunah Bilsted

      Faith Stanek

      阿莱克斯·卡鲁兹斯凯 Alex Kaluzhsky

      Liz Osborn

      Nate Steinwachs

      Greta Jung

      杰森·拉尔夫 Jason Ralph


◎简  


  The story of the boy who, after the girl he worked so hard to get breaks up with him, goes on a journey to get her back and discovers on the way what he's really been searching for.


Video
ID                                       : 1
Format                                   : AVC
Format/Info                              : Advanced Video Codec
Format profile                           : [email protected]
Format settings, CABAC                   : Yes
Format settings, ReFrames                : 4 frames
Codec ID                                 : V_MPEG4/ISO/AVC
Duration                                 : 1 h 20 min
Bit rate mode                            : Variable
Bit rate                                 : 9 021 kb/s
Maximum bit rate                         : 15.0 Mb/s
Width                                    : 1 920 pixels
Height                                   : 1 080 pixels
Display aspect ratio                     : 16:9
Frame rate mode                          : Constant
Frame rate                               : 23.976 (24000/1001) FPS
Color space                              : YUV
Chroma subsampling                       : 4:2:0
Bit depth                                : 8 bits
Scan type                                : Progressive
Bits/(Pixel*Frame)                       : 0.181
Stream size                              : 5.09 GiB (92%)
Writing library                          : x264 core 148 r2623 d5b2374
Encoding settings                        : cabac=1 / ref=4 / deblock=1:-1:-1 / analyse=0x3:0x133 / me=umh / subme=9 / psy=1 / psy_rd=1.00:0.15 / mixed_ref=1 / me_range=24 / chroma_me=1 / trellis=2 / 8x8dct=1 / cqm=0 / deadzone=21,11 / fast_pskip=1 / chroma_qp_offset=-3 / threads=34 / lookahead_threads=5 / sliced_threads=0 / nr=150 / decimate=1 / interlaced=0 / bluray_compat=0 / constrained_intra=0 / bframes=8 / b_pyramid=2 / b_adapt=2 / b_bias=0 / direct=3 / weightb=1 / open_gop=0 / weightp=2 / keyint=120 / keyint_min=61 / scenecut=0 / intra_refresh=0 / rc_lookahead=120 / rc=crf / mbtree=1 / crf=18.0 / qcomp=0.60 / qpmin=0 / qpmax=69 / qpstep=4 / vbv_maxrate=15000 / vbv_bufsize=31250 / crf_max=0.0 / nal_hrd=vbr / filler=0 / ip_ratio=1.40 / aq=3:1.00
Default                                  : Yes
Forced                                   : No
Color range                              : Limited
Color primaries                          : BT.709
Transfer characteristics                 : BT.709
Matrix coefficients                      : BT.709
Statistics Tags Issue                    : mkvmerge v12.0.0 (\'Trust / Lust\') 64bit 2017-06-18 15:13:31 / mkvmerge v12.0.0 (\'Trust / Lust\') 64bit 
FromStats_BitRate                        : 9214815
FromStats_Duration                       : 01:20:44.382000000
FromStats_FrameCount                     : 116149
FromStats_StreamSize                     : 5580010662

Audio
ID                                       : 2
Format                                   : E-AC-3
Format/Info                              : Enhanced Audio Coding 3
Format settings, Endianness              : Big
Codec ID                                 : A_EAC3
Duration                                 : 1 h 20 min
Bit rate mode                            : Constant
Bit rate                                 : 640 kb/s
Channel(s)                               : 6 channels
Channel positions                        : Front: L C R, Side: L R, LFE
Sampling rate                            : 48.0 kHz
Frame rate                               : 187.500 FPS (256 spf)
Compression mode                         : Lossy
Stream size                              : 370 MiB (6%)
Language                                 : English
Service kind                             : Complete Main
Default                                  : Yes
Forced                                   : No
Statistics Tags Issue                    : mkvmerge v12.0.0 (\'Trust / Lust\') 64bit 2017-06-18 15:13:31 / mkvmerge v12.0.0 (\'Trust / Lust\') 64bit 
FromStats_BitRate                        : 640000
FromStats_Duration                       : 01:20:44.352000000
FromStats_FrameCount                     : 151386
FromStats_StreamSize                     : 387548160

Text
ID                                       : 3
Format                                   : UTF-8
Codec ID                                 : S_TEXT/UTF8
Codec ID/Info                            : UTF-8 Plain Text
Language                                 : English
Default                                  : No
Forced                                   : No
Statistics Tags Issue                    : mkvmerge v12.0.0 (\'Trust / Lust\') 64bit 2017-06-18 15:13:31 / mkvmerge v12.0.0 (\'Trust / Lust\') 64bit 
FromStats_BitRate                        : 66
FromStats_Duration                       : 01:20:09.371000000
FromStats_FrameCount                     : 1368
FromStats_StreamSize                     : 39864




下载地址:
点击或右键另存为下载种子
相关电影
电影大百科
最新电影下载
最新剧集下载

如要下载电影资源请用电脑访问,本站所有片源均为高清

如果喜欢请大家支持正版到影院观看或购买正版

星云电影网 www.91ido.com