神勇奶爸 The.Pacifier.2005.1080p.REMUX.MPEG-2.LPCM.5.1-FGT 20GB

2017-06-21 12:08 / 星云电影网 / 喜剧

电影简介:◎译 名 神勇奶爸/超级奶爸/限制级褓母/凑仔型警/限制级奶嘴/摇舵记 ◎片 名 The Pacifier ◎年 代 2005 ◎产 地 加拿大/美国 ◎类 别 动作/喜剧/剧情/家庭/惊悚 ◎语 言 英语/韩语 ◎上映日期 2005-03-04(美国) ◎IMDb评分 5.6/10 from 71,481 users ◎IMDb

The.Pacifier.2005.1080p.BluRay.REMUX.MPEG-2.LPCM.5.1-FGT

◎译  名 神勇奶爸/超级奶爸/限制级褓母/凑仔型警/限制级奶嘴/

◎片  名 The Pacifier

◎年  代 2005

◎产  地 加拿大/美国

◎类  别 动作/喜剧/剧情/家庭/惊悚

◎语  言 英语/韩语

◎上映日期 2005-03-04(美国)

◎IMDb评分  5.6/10 from 71,481 users

◎IMDb链接  http://www.imdb.com/title/tt0395699/

◎豆瓣评分 6.8/10 from 22,416 users

◎豆瓣链接 https://movie.douban.com/subject/1308991/

◎BT之家整理 http://www.btbtt.co 

◎片  长 95 分钟

◎导  演 亚当·山克曼 Adam Shankman

◎主  演 范·迪塞尔 Vin Diesel

      菲丝·福德 Faith Ford

      布兰特妮·斯诺 Brittany Snow

      劳伦·格拉汉姆 Lauren Graham

      麦克斯·泰瑞奥 Max Thieriot


◎简  


  大块头有大智慧,这仅仅适合形容席恩(范·迪塞尔 Vin Diesel饰)的海军特种部队生涯。他曾经无比神勇,无所不能,是个忠实威猛的军人。但现在,席恩却接到一个令他大为头痛的任务:照顾五个年龄跨度从婴儿期到青春期的孩子,保护他们免受歹徒袭击。

  于是,席恩皱着眉头开始了他的非常任务。这是另一个没有枪火的战场,席恩必须和五个孩子“周旋斗争”,一边害怕叛逆期的男孩行为出轨,一边担心大吵大哭的婴儿饿了肚子湿了尿布。这个铮铮硬汉,在孩子面前常常束手无策,幸好也慢慢从乱七八糟的状况中理出个头绪来,还威风凛凛地当上了孩子舞台剧的导演呢。眼看孩子照顾得渐入佳境,歹徒的脚步声却越来越近了……


Video
ID                                       : 1
Format                                   : MPEG Video
Format version                           : Version 2
Format profile                           : [email protected]
Format settings, BVOP                    : Yes
Format settings, Matrix                  : Default
Format settings, GOP                     : M=3, N=15
Codec ID                                 : V_MPEG2
Codec ID/Info                            : MPEG 1 or 2 Video
Duration                                 : 1 h 35 min
Bit rate mode                            : Variable
Bit rate                                 : 18.4 Mb/s
Maximum bit rate                         : 35.0 Mb/s
Width                                    : 1 920 pixels
Height                                   : 1 080 pixels
Display aspect ratio                     : 16:9
Frame rate mode                          : Constant
Frame rate                               : 23.976 (24000/1001) FPS
Color space                              : YUV
Chroma subsampling                       : 4:2:0
Bit depth                                : 8 bits
Scan type                                : Progressive
Compression mode                         : Lossy
Bits/(Pixel*Frame)                       : 0.371
Time code of first frame                 : 00:00:00:00
Time code source                         : Group of pictures header
GOP, Open/Closed                         : Open
GOP, Open/Closed of first frame          : Closed
Stream size                              : 12.3 GiB (61%)
Title                                    : The.Pacifier.2005.1080p.BluRay.REMUX.MPEG-2.LPCM.5.1-FGT
Language                                 : English
Default                                  : No
Forced                                   : No

Audio #1
ID                                       : 2
Format                                   : PCM
Codec ID                                 : 00001000-0000-0100-8000-00AA00389B71
Duration                                 : 1 h 35 min
Bit rate mode                            : Constant
Bit rate                                 : 4 608 kb/s
Channel(s)                               : 6 channels
Channel positions                        : Front: L C R, Side: L R, LFE
Sampling rate                            : 48.0 kHz
Bit depth                                : 16 bits
Stream size                              : 3.07 GiB (15%)
Title                                    : The.Pacifier.2005.1080p.BluRay.REMUX.MPEG-2.LPCM.5.1-FGT
Language                                 : English
Default                                  : Yes
Forced                                   : No

Audio #2
ID                                       : 3
Format                                   : PCM
Codec ID                                 : 00001000-0000-0100-8000-00AA00389B71
Duration                                 : 1 h 35 min
Bit rate mode                            : Constant
Bit rate                                 : 4 608 kb/s
Channel(s)                               : 6 channels
Channel positions                        : Front: L C R, Side: L R, LFE
Sampling rate                            : 48.0 kHz
Bit depth                                : 16 bits
Stream size                              : 3.07 GiB (15%)
Title                                    : The.Pacifier.2005.1080p.BluRay.REMUX.MPEG-2.LPCM.5.1-FGT
Language                                 : Japanese
Default                                  : No
Forced                                   : No

Audio #3
ID                                       : 4
Format                                   : AC-3
Format/Info                              : Audio Coding 3
Format settings, Endianness              : Big
Codec ID                                 : A_AC3
Duration                                 : 1 h 35 min
Bit rate mode                            : Constant
Bit rate                                 : 640 kb/s
Channel(s)                               : 6 channels
Channel positions                        : Front: L C R, Side: L R, LFE
Sampling rate                            : 48.0 kHz
Frame rate                               : 31.250 FPS (1536 spf)
Bit depth                                : 16 bits
Compression mode                         : Lossy
Stream size                              : 436 MiB (2%)
Title                                    : The.Pacifier.2005.1080p.BluRay.REMUX.MPEG-2.LPCM.5.1-FGT
Language                                 : English
Service kind                             : Complete Main
Default                                  : No
Forced                                   : No

Audio #4
ID                                       : 5
Format                                   : AC-3
Format/Info                              : Audio Coding 3
Format settings, Endianness              : Big
Codec ID                                 : A_AC3
Duration                                 : 1 h 35 min
Bit rate mode                            : Constant
Bit rate                                 : 640 kb/s
Channel(s)                               : 6 channels
Channel positions                        : Front: L C R, Side: L R, LFE
Sampling rate                            : 48.0 kHz
Frame rate                               : 31.250 FPS (1536 spf)
Bit depth                                : 16 bits
Compression mode                         : Lossy
Stream size                              : 436 MiB (2%)
Title                                    : The.Pacifier.2005.1080p.BluRay.REMUX.MPEG-2.LPCM.5.1-FGT
Language                                 : Japanese
Service kind                             : Complete Main
Default                                  : No
Forced                                   : No

Audio #5
ID                                       : 6
Format                                   : AC-3
Format/Info                              : Audio Coding 3
Format settings, Endianness              : Big
Codec ID                                 : A_AC3
Duration                                 : 1 h 35 min
Bit rate mode                            : Constant
Bit rate                                 : 640 kb/s
Channel(s)                               : 6 channels
Channel positions                        : Front: L C R, Side: L R, LFE
Sampling rate                            : 48.0 kHz
Frame rate                               : 31.250 FPS (1536 spf)
Bit depth                                : 16 bits
Compression mode                         : Lossy
Stream size                              : 436 MiB (2%)
Title                                    : The.Pacifier.2005.1080p.BluRay.REMUX.MPEG-2.LPCM.5.1-FGT
Language                                 : Portuguese
Service kind                             : Complete Main
Default                                  : No
Forced                                   : No

Text #1
ID                                       : 7
Format                                   : PGS
Muxing mode                              : zlib
Codec ID                                 : S_HDMV/PGS
Codec ID/Info                            : Picture based subtitle format used on BDs/HD-DVDs
Title                                    : English-PGS
Language                                 : English
Default                                  : Yes
Forced                                   : No

Text #2
ID                                       : 8
Format                                   : PGS
Muxing mode                              : zlib
Codec ID                                 : S_HDMV/PGS
Codec ID/Info                            : Picture based subtitle format used on BDs/HD-DVDs
Title                                    : Japanese-PGS
Language                                 : Japanese
Default                                  : No
Forced                                   : No

Text #3
ID                                       : 9
Format                                   : PGS
Muxing mode                              : zlib
Codec ID                                 : S_HDMV/PGS
Codec ID/Info                            : Picture based subtitle format used on BDs/HD-DVDs
Title                                    : Chinese-PGS
Language                                 : Chinese
Default                                  : No
Forced                                   : No

Text #4
ID                                       : 10
Format                                   : PGS
Muxing mode                              : zlib
Codec ID                                 : S_HDMV/PGS
Codec ID/Info                            : Picture based subtitle format used on BDs/HD-DVDs
Title                                    : Indonesian-PGS
Language                                 : Indonesian
Default                                  : No
Forced                                   : No

Text #5
ID                                       : 11
Format                                   : PGS
Muxing mode                              : zlib
Codec ID                                 : S_HDMV/PGS
Codec ID/Info                            : Picture based subtitle format used on BDs/HD-DVDs
Title                                    : Malay-PGS
Language                                 : Malay
Default                                  : No
Forced                                   : No

Text #6
ID                                       : 12
Format                                   : PGS
Muxing mode                              : zlib
Codec ID                                 : S_HDMV/PGS
Codec ID/Info                            : Picture based subtitle format used on BDs/HD-DVDs
Title                                    : Korean-PGS
Language                                 : Korean
Default                                  : No
Forced                                   : No

Text #7
ID                                       : 13
Format                                   : PGS
Muxing mode                              : zlib
Codec ID                                 : S_HDMV/PGS
Codec ID/Info                            : Picture based subtitle format used on BDs/HD-DVDs
Title                                    : Portuguese-PGS
Language                                 : Portuguese
Default                                  : No
Forced                                   : No

Text #8
ID                                       : 14
Format                                   : PGS
Muxing mode                              : zlib
Codec ID                                 : S_HDMV/PGS
Codec ID/Info                            : Picture based subtitle format used on BDs/HD-DVDs
Title                                    : Japanese-PGS
Language                                 : Japanese
Default                                  : No
Forced                                   : No

Menu
00:00:00.000                             : en:Chapter 01
00:06:02.737                             : en:Chapter 02
00:15:39.188                             : en:Chapter 03
00:20:49.289                             : en:Chapter 04
00:25:05.128                             : en:Chapter 05
00:33:03.648                             : en:Chapter 06
00:36:11.836                             : en:Chapter 07
00:41:02.626                             : en:Chapter 08
00:46:39.213                             : en:Chapter 09
00:53:54.439                             : en:Chapter 10
00:57:30.405                             : en:Chapter 11
01:01:50.998                             : en:Chapter 12
01:09:55.316                             : en:Chapter 13
01:19:56.458                             : en:Chapter 14
01:25:33.837                             : en:Chapter 15
01:29:53.805                             : en:Chapter 16
01:35:19.630                             : en:Chapter 17





下载地址:
点击或右键另存为下载种子
相关电影
电影大百科
最新电影下载
最新剧集下载

如要下载电影资源请用电脑访问,本站所有片源均为高清

如果喜欢请大家支持正版到影院观看或购买正版

星云电影网 www.91ido.com