Game.Of.Aces..720p.WEBRip.x264-utL 1.08GB

2017-06-13 09:30 / 星云电影网 / 战争

电影简介:◎译 名 OutoftheBurningBlue ◎片 名 Game of Aces ◎年 代 2016 ◎产 地 美国 ◎类 别 剧情/战争 ◎语 言 英语 ◎上映日期 2016-09-09 ◎IMDb评分 5.7/10 from 39 users ◎IMDb链接 http://www.imdb.com/title/tt3687118/ ◎BT之家整理http://www.btbtt.co

Game.Of.Aces.2016.720p.WEBRip.x264-utL

◎译  名 OutoftheBurningBlue

◎片  名 Game of Aces

◎年  代 2016

◎产  地 美国

◎类  别 剧情/战争

◎语  言 英语

◎上映日期 2016-09-09

◎IMDb评分  5.7/10 from 39 users

◎IMDb链接  http://www.imdb.com/title/tt3687118/

◎BT之家整理 http://www.btbtt.co 

◎片  长 97分钟

◎导  演 Damien Lay

◎主  演 克里斯·克莱因 Chris Klein

      维多利亚·萨默 Victoria Summer

      维尔内尔·达赫 Werner Daehn


◎简  


  A rescue attempt of a German traitor during World War I has unexpected consequences and sets off an adventure across the Arabian desert.


Video
ID                                       : 1
Format                                   : AVC
Format/Info                              : Advanced Video Codec
Format profile                           : [email protected]
Format settings, CABAC                   : Yes
Format settings, ReFrames                : 5 frames
Codec ID                                 : V_MPEG4/ISO/AVC
Duration                                 : 1h 37mn
Bit rate                                 : 1 519 Kbps
Width                                    : 1 280 pixels
Height                                   : 464 pixels
Display aspect ratio                     : 2.759
Frame rate mode                          : Constant
Frame rate                               : 23.976 (24000/1001) fps
Color space                              : YUV
Chroma subsampling                       : 4:2:0
Bit depth                                : 8 bits
Scan type                                : Progressive
Bits/(Pixel*Frame)                       : 0.107
Stream size                              : 1.04 GiB (96%)
Writing library                          : x264 core 150 r2833 df79067
Encoding settings                        : cabac=1 / ref=5 / deblock=1:-3:-3 / analyse=0x3:0x113 / me=umh / subme=8 / psy=1 / psy_rd=1.00:0.00 / mixed_ref=1 / me_range=16 / chroma_me=1 / trellis=2 / 8x8dct=1 / cqm=0 / deadzone=21,11 / fast_pskip=1 / chroma_qp_offset=-2 / threads=6 / lookahead_threads=1 / sliced_threads=0 / nr=0 / decimate=1 / interlaced=0 / bluray_compat=0 / constrained_intra=0 / bframes=3 / b_pyramid=2 / b_adapt=1 / b_bias=0 / direct=3 / weightb=1 / open_gop=0 / weightp=2 / keyint=240 / keyint_min=23 / scenecut=40 / intra_refresh=0 / rc_lookahead=50 / rc=crf / mbtree=1 / crf=18.0 / qcomp=0.60 / qpmin=0 / qpmax=69 / qpstep=4 / vbv_maxrate=62500 / vbv_bufsize=78125 / crf_max=0.0 / nal_hrd=none / filler=0 / ip_ratio=1.40 / aq=1:1.00
Language                                 : English
Default                                  : Yes
Forced                                   : No
Color range                              : Limited
Matrix coefficients                      : BT.709

Audio
ID                                       : 2
Format                                   : AAC
Format/Info                              : Advanced Audio Codec
Format profile                           : LC
Codec ID                                 : A_AAC
Duration                                 : 1h 37mn
Bit rate                                 : 61.6 Kbps
Channel(s)                               : 2 channels
Channel positions                        : Front: L R
Sampling rate                            : 44.1 KHz
Frame rate                               : 43.066 fps (1024 spf)
Compression mode                         : Lossy
Stream size                              : 43.0 MiB (4%)
Language                                 : English
Default                                  : Yes
Forced                                   : No





下载地址:
点击或右键另存为下载种子
相关电影
电影大百科
最新电影下载
最新剧集下载

如要下载电影资源请用电脑访问,本站所有片源均为高清

如果喜欢请大家支持正版到影院观看或购买正版

星云电影网 www.91ido.com