太阳马戏团:情欲之旅 Cirque.du.Soleil.Kooza..1080p.WEBRip.DD5.1.x264-m

2017-06-21 12:07 / 星云电影网 / 综艺

电影简介:◎译 名 太阳马戏团:情欲之旅 ◎片 名 Cirque du Soleil: LoveSick ◎年 代 2008 ◎产 地 加拿大 ◎类 别 纪录片 ◎语 言 英语 ◎上映日期 2006 ◎IMDb评分 6.4/10 from 99 users ◎IMDb链接 http://www.imdb.com/title/tt0886467/ ◎豆瓣评分 6.9/10 from

Cirque.du.Soleil.Kooza.2008.1080p.WEBRip.DD5.1.x264-monkee

◎译  名 太阳马戏团:情欲之旅

◎片  名 Cirque du Soleil: LoveSick

◎年  代 2008

◎产  地 加拿大

◎类  别 纪录片

◎语  言 英语

◎上映日期 2006

◎IMDb评分  6.4/10 from 99 users

◎IMDb链接  http://www.imdb.com/title/tt0886467/

◎豆瓣评分 6.9/10 from 110 users

◎豆瓣链接 https://movie.douban.com/subject/1986434/

◎BT之家整理 http://www.btbtt.co 

◎导  演 Lewis Cohen

◎主  演 Joseph Arias

      Alex Castro

      Larry Aberman

      Jila Alaghamandan


◎简  


  情欲之旅》是太阳马戏团2006年新杰作,是一部主题为性爱的成人杂技秀,是太阳杂技团首次探讨人类情欲世界的另类演出。舞者们力图以异常丰富的肢体语言来诠释人性、激情、爱欲、宽容、美的本质、人类复杂多样的性爱关系以及无性边界的国度。


Video
ID                                       : 1
Format                                   : AVC
Format/Info                              : Advanced Video Codec
Format profile                           : [email protected]
Format settings, CABAC                   : Yes
Format settings, ReFrames                : 4 frames
Codec ID                                 : V_MPEG4/ISO/AVC
Duration                                 : 1 h 30 min
Bit rate mode                            : Variable
Bit rate                                 : 14.1 Mb/s
Maximum bit rate                         : 15.0 Mb/s
Width                                    : 1 920 pixels
Height                                   : 1 080 pixels
Display aspect ratio                     : 16:9
Frame rate mode                          : Constant
Frame rate                               : 29.970 (30000/1001) FPS
Color space                              : YUV
Chroma subsampling                       : 4:2:0
Bit depth                                : 8 bits
Scan type                                : Progressive
Bits/(Pixel*Frame)                       : 0.227
Stream size                              : 8.90 GiB (94%)
Writing library                          : x264 core 148 r2623 d5b2374
Encoding settings                        : cabac=1 / ref=4 / deblock=1:-1:-1 / analyse=0x3:0x133 / me=umh / subme=9 / psy=1 / psy_rd=1.00:0.15 / mixed_ref=1 / me_range=24 / chroma_me=1 / trellis=2 / 8x8dct=1 / cqm=0 / deadzone=21,11 / fast_pskip=1 / chroma_qp_offset=-3 / threads=34 / lookahead_threads=5 / sliced_threads=0 / nr=150 / decimate=1 / interlaced=0 / bluray_compat=0 / constrained_intra=0 / bframes=8 / b_pyramid=2 / b_adapt=2 / b_bias=0 / direct=3 / weightb=1 / open_gop=0 / weightp=2 / keyint=150 / keyint_min=76 / scenecut=0 / intra_refresh=0 / rc_lookahead=150 / rc=crf / mbtree=1 / crf=18.0 / qcomp=0.60 / qpmin=0 / qpmax=69 / qpstep=4 / vbv_maxrate=15000 / vbv_bufsize=31250 / crf_max=0.0 / nal_hrd=vbr / filler=0 / ip_ratio=1.40 / aq=3:1.00
Default                                  : Yes
Forced                                   : No
Color range                              : Limited
Color primaries                          : BT.709
Transfer characteristics                 : BT.709
Matrix coefficients                      : BT.709
Statistics Tags Issue                    : mkvmerge v12.0.0 (\'Trust / Lust\') 64bit 2017-06-18 02:39:48 / mkvmerge v12.0.0 (\'Trust / Lust\') 64bit 
FromStats_BitRate                        : 14432723
FromStats_Duration                       : 01:30:09.170000000
FromStats_FrameCount                     : 162113
FromStats_StreamSize                     : 9758631800

Audio
ID                                       : 2
Format                                   : E-AC-3
Format/Info                              : Enhanced Audio Coding 3
Format settings, Endianness              : Big
Codec ID                                 : A_EAC3
Duration                                 : 1 h 30 min
Bit rate mode                            : Constant
Bit rate                                 : 640 kb/s
Channel(s)                               : 6 channels
Channel positions                        : Front: L C R, Side: L R, LFE
Sampling rate                            : 48.0 kHz
Frame rate                               : 187.500 FPS (256 spf)
Compression mode                         : Lossy
Stream size                              : 413 MiB (4%)
Language                                 : English
Service kind                             : Complete Main
Default                                  : Yes
Forced                                   : No
Statistics Tags Issue                    : mkvmerge v12.0.0 (\'Trust / Lust\') 64bit 2017-06-18 02:39:48 / mkvmerge v12.0.0 (\'Trust / Lust\') 64bit 
FromStats_BitRate                        : 640000
FromStats_Duration                       : 01:30:09.120000000
FromStats_FrameCount                     : 169035
FromStats_StreamSize                     : 432729600

Text
ID                                       : 3
Format                                   : UTF-8
Codec ID                                 : S_TEXT/UTF8
Codec ID/Info                            : UTF-8 Plain Text
Language                                 : English
Default                                  : No
Forced                                   : No
Statistics Tags Issue                    : mkvmerge v12.0.0 (\'Trust / Lust\') 64bit 2017-06-18 02:39:48 / mkvmerge v12.0.0 (\'Trust / Lust\') 64bit 
FromStats_BitRate                        : 6
FromStats_Duration                       : 01:27:54.303000000
FromStats_FrameCount                     : 268
FromStats_StreamSize                     : 4499




下载地址:
点击或右键另存为下载种子
相关电影
电影大百科
最新电影下载
最新剧集下载

如要下载电影资源请用电脑访问,本站所有片源均为高清

如果喜欢请大家支持正版到影院观看或购买正版

星云电影网 www.91ido.com