Missing.411..720p.AAC2.0-Coo7 2.88GB

2017-06-21 12:08 / 星云电影网 / 综艺

电影简介:◎译 名 ◎片 名 Missing 411 ◎年 代 2016 ◎产 地 美国 ◎类 别 纪录片 ◎语 言 英语 ◎IMDb评分 7.1/10 from 35 users ◎IMDb链接 http://www.imdb.com/title/tt5864680/ ◎BT之家整理http://www.btbtt.co ◎片 长 98分钟 ◎导 演 Michael DeGrazier / Be

Missing.411.2016.720p.WEB-DL.AAC2.0.H264-Coo7

◎译  名 

◎片  名 Missing 411

◎年  代 2016

◎产  地 美国

◎类  别 纪录片

◎语  言 英语

◎IMDb评分  7.1/10 from 35 users

◎IMDb链接  http://www.imdb.com/title/tt5864680/

◎BT之家整理 http://www.btbtt.co 

◎片  长 98分钟

◎导  演 Michael DeGrazier / Benjamin Paulides


◎简  


  A documentary that chronicles the similar disappearances of five children in the wilds of North America, across multiple decades.


Video
ID                                       : 2
Format                                   : AVC
Format/Info                              : Advanced Video Codec
Format profile                           : [email protected]
Format settings, CABAC                   : No
Format settings, ReFrames                : 2 frames
Codec ID                                 : V_MPEG4/ISO/AVC
Duration                                 : 1 h 37 min
Bit rate                                 : 4 054 kb/s
Width                                    : 1 280 pixels
Height                                   : 720 pixels
Display aspect ratio                     : 16:9
Frame rate mode                          : Constant
Frame rate                               : 23.976 (23976/1000) FPS
Color space                              : YUV
Chroma subsampling                       : 4:2:0
Bit depth                                : 8 bits
Scan type                                : Progressive
Bits/(Pixel*Frame)                       : 0.183
Stream size                              : 2.77 GiB (96%)
Language                                 : English
Default                                  : Yes
Forced                                   : No
Color range                              : Limited
Color primaries                          : BT.709
Transfer characteristics                 : BT.709
Matrix coefficients                      : BT.709

Audio
ID                                       : 1
Format                                   : AAC
Format/Info                              : Advanced Audio Codec
Format profile                           : LC
Codec ID                                 : A_AAC
Duration                                 : 1 h 37 min
Bit rate                                 : 155 kb/s
Channel(s)                               : 2 channels
Channel positions                        : Front: L R
Sampling rate                            : 48.0 kHz
Frame rate                               : 46.875 FPS (1024 spf)
Compression mode                         : Lossy
Stream size                              : 108 MiB (4%)
Language                                 : English
Default                                  : Yes
Forced                                   : No

Text
ID                                       : 3
Format                                   : UTF-8
Codec ID                                 : S_TEXT/UTF8
Codec ID/Info                            : UTF-8 Plain Text
Duration                                 : 1 h 35 min
Bit rate                                 : 125 b/s
Count of elements                        : 1782
Stream size                              : 88.0 KiB (0%)
Language                                 : English
Default                                  : Yes
Forced                                   : No

Menu
00:00:00.000                             : en:Chapter One
00:15:00.000                             : en:Chapter Two
00:30:00.000                             : en:Chapter Three
00:45:00.000                             : en:Chapter Four
01:00:00.000                             : en:Chapter Five
01:15:00.000                             : en:Chapter Six
01:30:00.000                             : en:Chapter Seven




下载地址:
点击或右键另存为下载种子
相关电影
电影大百科
最新电影下载
最新剧集下载

如要下载电影资源请用电脑访问,本站所有片源均为高清

如果喜欢请大家支持正版到影院观看或购买正版

星云电影网 www.91ido.com